Триптих для двоих / Триптих для двох (Ирина Клищевская) [2015 г., Украина, размышления по поводу, TVRip] Киевский академический театр «Колесо»


 

[Цитировать]

Триптих для двоих / Триптих для двох Название театра: Киевский академический театр «Колесо».
Год выпуска: 2015.
Страна: Украина .
Жанр: размышления по поводу...
Продолжительность: 01:07:45.
Язык: Русский.
Режиссеры: народная артистка Украины Ирина Клищевская, Борис Квашнёв.
Действующие лица и исполнители:
Она - Галина Зражевская-Лепенец,
Он - Олег Лепенец.
О спектакле:
Сентиментальная история встречи и расставания двух одиноких людей, которые никак не решатся сделать шаг навстречу друг другу. Кто первым осмелится сделать этот шаг? А может это судьба?..
Дополнительная информация:
Выпущено: Киевский академический театр «Колесо», ГТРК "Культура".
Автор: Семен Злотников.
Режиссер-постановщик спектакля: народная артистка Украины Ирина Клищевская.
Художник-постановщик: Светлана Круковская.
Музыкальное оформление: Игорь Шишкин.
Звучат песни: Булата Окуджавы, Марианны Мирзоян, Анастасии Лемиш в исполнении Владимира Семенова.
Основатель, художественный руководитель-директор и идейный вдохновитель театра: народная артистка Украины Ирина Клищевская.
Премьера состоялась 28 июля 1988 года.
Режиссер телеверсии: Борис Квашнёв.
Операторы: Александр Скудар, Сергей Карапищенко, Денис Якуш.

О спектакле.
Релиз
Рип sharky.

Качество видео:...TVRip
Формат:.................AVI
Видео:..704x528 (1.33:1), 25 fps, XviD build 50 ~2098 kbps avg, 0.23 bit/pixel
Аудио:..48 kHz, AC3 Dolby Digital, 2/0 (L,R) ch, ~192.00 kbps avg

Отчет MediaInfo

Общее
Полное имя : Triptih.dlya.dvoih_Kievskij.AT.Koleso.2015.XviD.TVRip.fenixclub.avi
Format : AVI
Format/Info : Audio Video Interleave
File size : 1.09 GiB
Duration : 1h 7mn
Overall bit rate : 2 301 Kbps
Writing application : VirtualDubMod 1.5.10.3 | www.virtualdub-fr.org || (build 2550/release)
Writing library : VirtualDubMod build 2550/release
Video
ID : 0
Format : MPEG-4 Visual
Format profile : Advanced Simple@L5
Format settings, BVOP : 1
Format settings, QPel : No
Format settings, GMC : No warppoints
Format settings, Matrix : Default (H.263)
Codec ID : XVID
Codec ID/Hint : XviD
Duration : 1h 7mn
Bit rate : 2 099 Kbps
Width : 704 pixels
Height : 528 pixels
Display aspect ratio : 4:3
Frame rate : 25.000 fps
Color space : YUV
Chroma subsampling : 4:2:0
Bit depth : 8 bits
Scan type : Progressive
Compression mode : Lossy
Bits/(Pixel*Frame) : 0.226
Stream size : 1 017 MiB (91%)
Writing library : XviD 1.2.1 (UTC 2008-12-04)
Audio
ID : 1
Format : AC-3
Format/Info : Audio Coding 3
Mode extension : CM (complete main)
Format settings, Endianness : Big
Codec ID : 2000
Duration : 1h 7mn
Bit rate mode : Constant
Bit rate : 192 Kbps
Channel(s) : 2 channels
Channel positions : Front: L R
Sampling rate : 48.0 KHz
Compression mode : Lossy
Stream size : 93.0 MiB (8%)
Alignment : Split accross interleaves
Interleave, duration : 40 ms (1.00 video frame)
Interleave, preload duratio : 500 ms.

Скриншоты


Альтернативный хост





Показать сообщения:    

Текущее время: 06-Дек 15:15

Часовой пояс: UTC + 3


Вы не можете начинать темы
Вы не можете отвечать на сообщения
Вы не можете редактировать свои сообщения
Вы не можете удалять свои сообщения
Вы не можете голосовать в опросах
Вы не можете прикреплять файлы к сообщениям
Вы не можете скачивать файлы