Как Важно Быть Серьезным / The Importance Of Being Earnest (Adrian Noble) [2015, UK, театр, комедия, HDTVRip, AVC] Earnest Live Film


 

[Цитировать]

Как Важно Быть Серьезным / The Importance Of Being Earnest
Название театра: Vaudeville Theatre (London)
Страна: UK
Жанр: театр, комедия
Год выпуска: 2015
Продолжительность: 00:48:55 + 00:49:35 + 00:32:57
Перевод: Субтитры (М_Васильев)
Cубтитры: русские, английские
Оригинальная аудиодорожка: английский
Режиссёр: Adrian Noble
В ролях:
David Suchet (Lady Bracknell)
Michele Dotrice (Miss Prism, Governess)
Richard O’Callaghan (Reverend Canon Chasuble, D.D.)
Emily Barber (Honorable Gwendolen Fairfax)
Michael Benz (John Worthing, J.P.)
Philip Cumbus (Algernon Moncrieff)
Imogen Doel (Cecily Cardew)
Brendan Hooper (Merriman, Butler)
David Killick (Lane, Manservant)
Mark Hammersley (Footman)
Charlotte Blackledge
Pamela Hardman
Mark Hammersley
Описание: https://ru.wikipedia.org/wiki/Как_важно_быть_серьёзным
Доп. информация:
Премьера этой постановки
The Importance Of Being Earnest (Как Важно Быть Серьезным)
была в театре 'Theatre Royal Nottingham', 13 мая 2015.
премьера в Лондоне, театр 'Vaudeville Theatre', 24 июня 2015.
За кадром: эксклюзивные интервью с режиссером Adrian Noble и актером Дэвидом Суше, сыгравшим леди Брекнел
Семпл: https://cloud.mail.ru/public/K8gL/bNtnFzekn
Качество видео: HDTVRip
Формат видео: MKV
Видео: MPEG Video Version 2, Main@High, 15,2 Мбит/сек, 1920x1080, 16:9, 25 кадров/сек
Аудио: English, AC-3 (Audio Coding 3), 48,0 КГц, 448 Кбит/сек, 6 каналов

MediaInfo

Общее
Уникальный идентификатор : 199689121623306102470904771739145594341 (0x963AB9D3F1DE62CC8C85371BB1EDE5E5)
Полное имя : O:\Feed\Oskar Wilde\The Importance of Being Earnest\The.Importance.of.Being.Earnest.p1.mkv
Формат : Matroska
Версия формата : Version 4 / Version 2
Размер файла : 5,69 Гбайт
Продолжительность : 48 м.
Режим общего битрейта : Переменный
Общий поток : 16,7 Мбит/сек
Название фильма : release by @mrita
Дата кодирования : UTC 2015-10-30 18:53:42
Программа кодирования : mkvmerge v8.5.0 ('Vanishing Act') 64bit
Библиотека кодирования : libebml v1.3.1 + libmatroska v1.4.2
DURATION : 00:48:31.610000000
NUMBER_OF_FRAMES : 748
NUMBER_OF_BYTES : 38917
_STATISTICS_WRITING_APP : mkvmerge v8.5.0 ('Vanishing Act') 64bit
_STATISTICS_WRITING_DATE_UTC : 2015-10-30 18:53:42
_STATISTICS_TAGS : BPS DURATION NUMBER_OF_FRAMES NUMBER_OF_BYTES
Видео
Идентификатор : 1
Формат : MPEG Video
Версия формата : Version 2
Профиль формата : Main@High
Параметр BVOP формата : Нет
Параметр матрицы формата : По умолчанию
Идентификатор кодека : V_MPEG2
Идентификатор кодека/Информация : MPEG 1 or 2 Video
Продолжительность : 48 м.
Вид битрейта : Переменный
Битрейт : 15,9 Мбит/сек
Максимальный битрейт : 9000 Кбит/сек
Ширина : 1920 пикселей
Высота : 1080 пикселей
Соотношение сторон : 16:9
Режим частоты кадров : Постоянный
Частота кадров : 25,000 кадров/сек
Цветовое пространство : YUV
Субдискретизация насыщенности : 4:2:0
Битовая глубина : 8 бит
Тип развёртки : Чересстрочная
Порядок развёртки : Верхнее поле первое
Метод сжатия : С потерями
Бит/(Пиксели*Кадры) : 0.306
Временной код первого кадра : 00:00:00:00
Оригинал временного кода : Group of pictures header
Размер потока : 5,43 Гбайт (95%)
Библиотека кодирования : (dvd5: Nov 27 2014)
Default : Да
Forced : Нет
Аудио
Идентификатор : 2
Формат : AC-3
Формат/Информация : Audio Coding 3
Расширение режима : CM (complete main)
Параметр Endianness формата : Big
Идентификатор кодека : A_AC3
Продолжительность : 48 м.
Вид битрейта : Постоянный
Битрейт : 448 Кбит/сек
Каналы : 6 каналов
Расположение каналов : Front: L C R, Side: L R, LFE
Частота : 48,0 КГц
Битовая глубина : 16 бит
Метод сжатия : С потерями
Размер потока : 157 Мбайт (3%)
Default : Да
Forced : Нет
Текст #1
Идентификатор : 3
Формат : UTF-8
Идентификатор кодека : S_TEXT/UTF8
Идентификатор кодека/Информация : UTF-8 Plain Text
Язык : Russian
Default : Да
Forced : Нет
Текст #2
Идентификатор : 4
Формат : UTF-8
Идентификатор кодека : S_TEXT/UTF8
Идентификатор кодека/Информация : UTF-8 Plain Text
Язык : English
Default : Нет
Forced : Нет
Общее
Уникальный идентификатор : 224082848490756388382921609258905807412 (0xA894C96B475B2990BEFF4831A882AA34)
Полное имя : O:\Feed\Oskar Wilde\The Importance of Being Earnest\The.Importance.of.Being.Earnest.p2.mkv
Формат : Matroska
Версия формата : Version 4 / Version 2
Размер файла : 5,80 Гбайт
Продолжительность : 49 м.
Режим общего битрейта : Переменный
Общий поток : 16,7 Мбит/сек
Название фильма : release by @mrita
Дата кодирования : UTC 2015-10-30 21:42:28
Программа кодирования : mkvmerge v8.5.0 ('Vanishing Act') 64bit
Библиотека кодирования : libebml v1.3.1 + libmatroska v1.4.2
DURATION : 00:48:31.790000000
NUMBER_OF_FRAMES : 769
NUMBER_OF_BYTES : 39103
_STATISTICS_WRITING_APP : mkvmerge v8.5.0 ('Vanishing Act') 64bit
_STATISTICS_WRITING_DATE_UTC : 2015-10-30 21:42:28
_STATISTICS_TAGS : BPS DURATION NUMBER_OF_FRAMES NUMBER_OF_BYTES
Видео
Идентификатор : 1
Формат : MPEG Video
Версия формата : Version 2
Профиль формата : Main@High
Параметр BVOP формата : Нет
Параметр матрицы формата : Выборочная
Идентификатор кодека : V_MPEG2
Идентификатор кодека/Информация : MPEG 1 or 2 Video
Продолжительность : 49 м.
Вид битрейта : Переменный
Битрейт : 16,0 Мбит/сек
Максимальный битрейт : 9000 Кбит/сек
Ширина : 1920 пикселей
Высота : 1080 пикселей
Соотношение сторон : 16:9
Режим частоты кадров : Постоянный
Частота кадров : 25,000 кадров/сек
Цветовое пространство : YUV
Субдискретизация насыщенности : 4:2:0
Битовая глубина : 8 бит
Тип развёртки : Чересстрочная
Порядок развёртки : Верхнее поле первое
Метод сжатия : С потерями
Бит/(Пиксели*Кадры) : 0.308
Временной код первого кадра : 00:00:00:00
Оригинал временного кода : Group of pictures header
Размер потока : 5,53 Гбайт (95%)
Библиотека кодирования : (dvd5: Nov 27 2014)
Default : Да
Forced : Нет
Аудио
Идентификатор : 2
Формат : AC-3
Формат/Информация : Audio Coding 3
Расширение режима : CM (complete main)
Параметр Endianness формата : Big
Идентификатор кодека : A_AC3
Продолжительность : 49 м.
Вид битрейта : Постоянный
Битрейт : 448 Кбит/сек
Каналы : 6 каналов
Расположение каналов : Front: L C R, Side: L R, LFE
Частота : 48,0 КГц
Битовая глубина : 16 бит
Метод сжатия : С потерями
Размер потока : 159 Мбайт (3%)
Default : Да
Forced : Нет
Текст #1
Идентификатор : 3
Формат : UTF-8
Идентификатор кодека : S_TEXT/UTF8
Идентификатор кодека/Информация : UTF-8 Plain Text
Язык : Russian
Default : Да
Forced : Нет
Текст #2
Идентификатор : 4
Формат : UTF-8
Идентификатор кодека : S_TEXT/UTF8
Идентификатор кодека/Информация : UTF-8 Plain Text
Язык : English
Default : Нет
Forced : Нет
Общее
Уникальный идентификатор : 186183453238868525422629097151710446164 (0x8C11A0F758D5405498DA3F1511E14254)
Полное имя : O:\Feed\Oskar Wilde\The Importance of Being Earnest\The.Importance.of.Being.Earnest.p3.mkv
Формат : Matroska
Версия формата : Version 4 / Version 2
Размер файла : 3,67 Гбайт
Продолжительность : 32 м.
Режим общего битрейта : Переменный
Общий поток : 15,9 Мбит/сек
Название фильма : release by @mrita
Дата кодирования : UTC 2015-10-31 06:18:30
Программа кодирования : mkvmerge v8.5.0 ('Vanishing Act') 64bit
Библиотека кодирования : libebml v1.3.1 + libmatroska v1.4.2
DURATION : 00:27:45.669000000
NUMBER_OF_FRAMES : 421
NUMBER_OF_BYTES : 21240
_STATISTICS_WRITING_APP : mkvmerge v8.5.0 ('Vanishing Act') 64bit
_STATISTICS_WRITING_DATE_UTC : 2015-10-31 06:18:30
_STATISTICS_TAGS : BPS DURATION NUMBER_OF_FRAMES NUMBER_OF_BYTES
Видео
Идентификатор : 1
Формат : MPEG Video
Версия формата : Version 2
Профиль формата : Main@High
Параметр BVOP формата : Нет
Параметр матрицы формата : Выборочная
Идентификатор кодека : V_MPEG2
Идентификатор кодека/Информация : MPEG 1 or 2 Video
Продолжительность : 32 м.
Вид битрейта : Переменный
Битрейт : 15,2 Мбит/сек
Максимальный битрейт : 9000 Кбит/сек
Ширина : 1920 пикселей
Высота : 1080 пикселей
Соотношение сторон : 16:9
Режим частоты кадров : Постоянный
Частота кадров : 25,000 кадров/сек
Цветовое пространство : YUV
Субдискретизация насыщенности : 4:2:0
Битовая глубина : 8 бит
Тип развёртки : Чересстрочная
Порядок развёртки : Верхнее поле первое
Метод сжатия : С потерями
Бит/(Пиксели*Кадры) : 0.293
Временной код первого кадра : 00:00:00:00
Оригинал временного кода : Group of pictures header
Размер потока : 3,49 Гбайт (95%)
Библиотека кодирования : (dvd5: Nov 27 2014)
Default : Да
Forced : Нет
Аудио
Идентификатор : 2
Формат : AC-3
Формат/Информация : Audio Coding 3
Расширение режима : CM (complete main)
Параметр Endianness формата : Big
Идентификатор кодека : A_AC3
Продолжительность : 32 м.
Вид битрейта : Постоянный
Битрейт : 448 Кбит/сек
Каналы : 6 каналов
Расположение каналов : Front: L C R, Side: L R, LFE
Частота : 48,0 КГц
Битовая глубина : 16 бит
Метод сжатия : С потерями
Размер потока : 106 Мбайт (3%)
Default : Да
Forced : Нет
Текст #1
Идентификатор : 3
Формат : UTF-8
Идентификатор кодека : S_TEXT/UTF8
Идентификатор кодека/Информация : UTF-8 Plain Text
Язык : Russian
Default : Да
Forced : Нет
Текст #2
Идентификатор : 4
Формат : UTF-8
Идентификатор кодека : S_TEXT/UTF8
Идентификатор кодека/Информация : UTF-8 Plain Text
Язык : English
Default : Нет
Forced : Нет



Показать сообщения:    

Текущее время: 07-Дек 13:41

Часовой пояс: UTC + 3


Вы не можете начинать темы
Вы не можете отвечать на сообщения
Вы не можете редактировать свои сообщения
Вы не можете удалять свои сообщения
Вы не можете голосовать в опросах
Вы не можете прикреплять файлы к сообщениям
Вы не можете скачивать файлы