Голубь сидел на ветке, размышляя о бытии / En duva satt pa en gren och funderade pa tillvaron (Рой Андерссон / Roy Andersson) [2014, Швеция, Германия, Норвегия, Франция, драма, черная комедия, абсурд, HDRip] MVO + Sub Rus + Original Swe


 

[Цитировать]

Голубь сидел на ветке, размышляя о бытии
En duva satt pa en gren och funderade pa tillvaron
- Страна: Швеция, Германия, Норвегия, Франция
Жанр: драма, черная комедия, абсурд
Год выпуска: 2014
Продолжительность: 01:40:04
Перевод: Профессиональный (многоголосый закадровый)
Cубтитры: русские (Skuf)
Оригинальная аудиодорожка: шведский
Режиссер: Рой Андерссон / Roy Andersson
В ролях: Хольгер Андерссон, Нилс Вестблом, Лотта Ларссон, Виктор Джилленберг, Лотти Тёрнрос, Йонас Герхолм, Ола Стенссон, Оскар Саломонссон, Роджер Олсен Ликверн, Вильгельм Райсинг-Описание: Два коммивояжера, Сэм и Джонатан, продают всяческие новинки. Во время своего путешествия они попадают в различные ситуации, показывающие красоту и хрупкость нашего мира, величие одних и мелочность других моментов в жизни.
Последняя часть трилогии, начинавшейся с картин "Песни со второго этажа / Snger frnandra vningen (2000)" и "Ты, живущий! / Du levande (2007)".-Сэмпл: http://multi-up.com/1073685
Качество видео: HDRip
Формат видео: AVI
Видео: XVID 720x400 (16:9) 24fps 1884kbps
Аудио: MP3 48000Hz stereo 192kbps - русский
Аудио 2: MP3 44100Hz stereo 192kbps - оригинал
Формат субтитров: softsub (SRT)
Источник: за рип и русскую дорожку благодарим Скандинавский колейдоскоп,
оригинальная дорожка взята отсюда: http://teatrix.ru/viewtopic.php?t=5633
Русская дорожка очищена от пары артефактов, а также повышена громкость оригинальной дорожки.

MediaInfo

Общее
Полное имя : F:\Golub.Sidel.Na.Vetke.Razmyshljaja.O.Bitii\Golub.Sidel.Na.Vetke.Razmyshljaja.O.Bitii.avi
Формат : AVI
Формат/Информация : Audio Video Interleave
Размер файла : 1,60 Гбайт
Продолжительность : 1 ч. 40 м.
Общий поток : 2282 Кбит/сек
Программа кодирования : VirtualDubMod 1.5.10.2 (build 2540/release)
Библиотека кодирования : VirtualDubMod build 2540/release
Видео
Идентификатор : 0
Формат : MPEG-4 Visual
Профиль формата : Advanced Simple@L5
Параметр BVOP формата : 2
Параметр QPel формата : Нет
Параметр GMC формата : Без точки перехода
Параметр матрицы формата : Default (MPEG)
Идентификатор кодека : XVID
Идентификатор кодека/Подсказка : XviD
Продолжительность : 1 ч. 40 м.
Битрейт : 1884 Кбит/сек
Ширина : 720 пикселей
Высота : 400 пикселей
Соотношение сторон : 16:9
Частота кадров : 24,000 кадра/сек
Цветовое пространство : YUV
Субдискретизация насыщенности : 4:2:0
Битовая глубина : 8 бит
Тип развёртки : Прогрессивная
Метод сжатия : С потерями
Бит/(Пиксели*Кадры) : 0.273
Размер потока : 1,32 Гбайт (83%)
Библиотека кодирования : XviD 1.2.1 (UTC 2008-12-04)
Аудио #1
Идентификатор : 1
Формат : MPEG Audio
Версия формата : Version 1
Профиль формата : Layer 3
Режим : Joint stereo
Идентификатор кодека : 55
Идентификатор кодека/Подсказка : MP3
Продолжительность : 1 ч. 40 м.
Вид битрейта : Постоянный
Битрейт : 192 Кбит/сек
Каналы : 2 канала
Частота : 48,0 КГц
Метод сжатия : С потерями
Размер потока : 137 Мбайт (8%)
Выравнивание : Соединение по промежуткам
Продолжительность промежутка : 42 мс. (1,00 видеокадр)
Время предзагрузки промежутка : 504 мс.
Аудио #2
Идентификатор : 2
Формат : MPEG Audio
Версия формата : Version 1
Профиль формата : Layer 3
Режим : Joint stereo
Идентификатор кодека : 55
Идентификатор кодека/Подсказка : MP3
Продолжительность : 1 ч. 40 м.
Вид битрейта : Постоянный
Битрейт : 192 Кбит/сек
Каналы : 2 канала
Частота : 44,1 КГц
Метод сжатия : С потерями
Размер потока : 137 Мбайт (8%)
Выравнивание : Разделение по промежуткам
Продолжительность промежутка : 42 мс. (1,00 видеокадр)
Время предзагрузки промежутка : 500 мс.

Скриншот c названием фильма

Скриншоты




Показать сообщения:    

Текущее время: 08-Дек 07:05

Часовой пояс: UTC + 3


Вы не можете начинать темы
Вы не можете отвечать на сообщения
Вы не можете редактировать свои сообщения
Вы не можете удалять свои сообщения
Вы не можете голосовать в опросах
Вы не можете прикреплять файлы к сообщениям
Вы не можете скачивать файлы