Ростовская область. Белокалитвинский район. Иван Колодкин / Иван сын Ивана (Олег Афанасьев) [2012, Док. История. Этнография, TVRip]


Статистика раздачи [Обновить пиров]
Размер:  276 MB   |    Зарегистрирован:  9 месяцев 30 дней   |    Скачан:  0 раз

Полного источника не было: Никогда

 
   
 
 
 

[Цитировать]

Ростовская область. Белокалитвинский район. Иван Колодкин / Иван сын Ивана
Дата/Год выпуска: 2012
Страна: Россия
Жанр: Док. История. Этнография
Продолжительность: 00:28:54
Перевод: Не требуется
Русские субтитры: нет
Режиссер: Олег Афанасьев
Телеканал: Россия-1 - Дон-ТР
Описание: Самобытный взгляд на историю донского казачества народного поэта, летописца и философа Ивана Колодкина. Богураев — хутор в Белокалитвинском районе Ростовской области. Административный центр Богураевского сельского поселения.
Хутор Богураев, Белокалитвинского района Ростовской области, где началась биография Ивана Ивновича Колодкина. Есть в Ростовской области казачий хутор Богураев в 8 км от г. Белая Калитва, где родился в 1947 г. и вырос в семье потомственного казака Ивана Колодкина. После службы в советской армии с 1966 по 1969 г. учился и окончил факультет истории и обществоведения ныне Нежинского университета имени Николая Гоголя (Украина). Сельским учителем преподавал любимый предмет история детям в Тацинском, Морозовском и Обливском районах Ростовской области более 15 лет.
Фильм "Иван сын Ивана" стал победителем ХХII-го Международного Кинофорума "Золотой Витязь" в номинации "Короткометражные документальные фильмы". Для участия в конкурсе были отобраны 150 фильмов из 30 стран, включая Бельгию, Сербию, Германию, Болгарию, Норвегию, Грузию, Иран, Польшу.
Фильм "Иван сын Ивана" получил диплом жюри "За авторскую концепцию в показе темы сохранения исторической памяти" на IX-ом международном фестивале "MAGNIFICAT" (2013).
Доп. информация: Производство: ГТРК "Дон-ТР".
Качество: TVRip
Формат: AVI
Видео: Video: H264 700x544 25.00fps 1100Kbps
Аудио: Аудио: MPEG Audio Layer 3 48000Hz stereo 224Kbps

MediaInfo

General
Complete name : F:\Ростовская область. Белокалитвинский район. Иван Колодкин [Иван сын Ивана] (2012).avi
Format : AVI
Format/Info : Audio Video Interleave
File size : 276 MiB
Duration : 28mn 54s
Overall bit rate : 1 334 Kbps
Writing library : VirtualDub build 28346/release
Video
ID : 0
Format : AVC
Format/Info : Advanced Video Codec
Format profile : High@L3.1
Format settings, CABAC : Yes
Format settings, ReFrames : 8 frames
Codec ID : H264
Duration : 28mn 54s
Bit rate : 1 100 Kbps
Width : 700 pixels
Height : 544 pixels
Display aspect ratio : 1.287
Frame rate : 25.000 fps
Color space : YUV
Chroma subsampling : 4:2:0
Bit depth : 8 bits
Scan type : Progressive
Bits/(Pixel*Frame) : 0.116
Stream size : 227 MiB (82%)
Writing library : x264 core 130 r2274bm c832fe9
Encoding settings : cabac=1 / ref=8 / deblock=1:-1:-1 / analyse=0x3:0x133 / me=umh / subme=9 / psy=1 / psy_rd=1.00:0.15 / mixed_ref=1 /
me_range=16 / chroma_me=1 / trellis=2 / 8x8dct=1 / cqm=0 / deadzone=21,11 / fast_pskip=1 / chroma_qp_offset=-3 / threads=6 / lookahead_threads=1 /
sliced_threads=0 / nr=0 / decimate=1 / interlaced=0 / bluray_compat=0 / constrained_intra=0 / bframes=3 / b_pyramid=2 / b_adapt=2 / b_bias=0 / direct=3 /
weightb=1 / open_gop=0 / weightp=2 / keyint=250 / keyint_min=25 / scenecut=40 / intra_refresh=0 / rc_lookahead=60 / rc=2pass / mbtree=1 / bitrate=1100 /
ratetol=1.0 / qcomp=0.60 / qpmin=0 / qpmax=69 / qpstep=4 / cplxblur=20.0 / qblur=0.5 / ip_ratio=1.40 / aq=1:1.00
Audio
ID : 1
Format : MPEG Audio
Format version : Version 1
Format profile : Layer 3
Mode : Joint stereo
Codec ID : 55
Codec ID/Hint : MP3
Duration : 28mn 54s
Bit rate mode : Constant
Bit rate : 224 Kbps
Channel(s) : 2 channels
Sampling rate : 48.0 KHz
Stream size : 46.3 MiB (17%)
Alignment : Split accross interleaves
Interleave, duration : 40 ms (1.00 video frame)
Interleave, preload duration : 500 ms

Скриншоты

[teatrix.ru].t22531.torrent 
Торрент: Зарегистрирован [ 2016-03-21 00:16 ] · A3904F09D1D55CE6BA96137DD13B14D73762F069

Скачать .torrent

Скачать

11 KB

Статус: проверено
Скачан: 0 раз
Размер: 276 MB
terms.php



Быстрый ответ

Имя:

      
Для отправки сообщений необходимо включить JavaScript
Показать сообщения:    

Текущее время: 20-Янв 17:01

Часовой пояс: UTC + 3


Вы можете начинать темы
Вы можете отвечать на сообщения
Вы не можете редактировать свои сообщения
Вы не можете удалять свои сообщения
Вы не можете голосовать в опросах
Вы не можете прикреплять файлы к сообщениям
Вы можете скачивать файлы