Шолохов Михаил Александрович в 1920-е годы / Родная моя и милая (Людмила Рублевская) [2014, Док. Биография, TVRip]


Статистика раздачи [Обновить пиров]
Размер:  291 MB   |    Зарегистрирован:  8 месяцев 19 дней   |    Скачан:  0 раз

Полного источника не было: Никогда

 
   
 
 
 

[Цитировать]

Шолохов Михаил Александрович в 1920-е годы / Родная моя и милая
Дата/Год выпуска: 2014
Страна: Россия
Жанр: Док. Биография
Продолжительность: 00:30:31
Перевод: Не требуется
Русские субтитры: нет
Режиссер: Людмила Рублевская
Телеканал: Россия-1 - Дон-ТР
Описание: Михаил Александрович Шолохов - русский советский писатель, киносценарист. Лауреат Нобелевской премии по литературе.
В 1920—1921 годах жил с семьей в станице Каргинской. После окончания ростовских налоговых курсов получил назначение на должность продовольственного инспектора в станицу Букановскую, затем вступил в продотряд, участвовал в продразверстке. В Москве Шолохов пытался продолжить образование, а также пробовал свои силы в писательском труде. Однако поступить на подготовительные курсы рабфака не удалось из-за отсутствия требуемых для поступления трудового стажа и направления комсомола.
В декабре 1923 года М. А. Шолохов вернулся в Каргинскую, а затем — в станицу Букановскую, где и посватался к Лидии Громославской — одной из дочерей бывшего станичного атамана Петра Яковлевича Громославского. Но бывший атаман сказал: «Бери Марию, и я сделаю из тебя человека». 11 января 1924 года М. А. Шолохов женился на старшей дочери — Марии Петровне Громославской (1901—1992), которая работала учительницей начальной школы.
Российскую и мировую известность Шолохову принес роман «Тихий Дон».
Доп. информация: Производство: ГТРК "Дон-ТР" по заказу Государственного музея-заповедника М.А. Шолохова.
Качество: TVRip
Формат: AVI
Видео: Video: H264 700x544 25.00fps 1099Kbps
Аудио: Аудио: MPEG Audio Layer 3 48000Hz stereo 224Kbps

MediaInfo

General
Complete name : F:\Шолохов Михаил Александрович в 1920-е годы [Родная моя и милая] (2014).avi
Format : AVI
Format/Info : Audio Video Interleave
File size : 291 MiB
Duration : 30mn 31s
Overall bit rate : 1 334 Kbps
Writing library : VirtualDub build 28346/release
Video
ID : 0
Format : AVC
Format/Info : Advanced Video Codec
Format profile : High@L3.1
Format settings, CABAC : Yes
Format settings, ReFrames : 8 frames
Codec ID : H264
Duration : 30mn 31s
Bit rate : 1 100 Kbps
Width : 700 pixels
Height : 544 pixels
Display aspect ratio : 1.287
Frame rate : 25.000 fps
Color space : YUV
Chroma subsampling : 4:2:0
Bit depth : 8 bits
Scan type : Progressive
Bits/(Pixel*Frame) : 0.116
Stream size : 240 MiB (82%)
Writing library : x264 core 130 r2274bm c832fe9
Encoding settings : cabac=1 / ref=8 / deblock=1:-1:-1 / analyse=0x3:0x133 / me=umh / subme=9 / psy=1 / psy_rd=1.00:0.15 / mixed_ref=1 /
me_range=16 / chroma_me=1 / trellis=2 / 8x8dct=1 / cqm=0 / deadzone=21,11 / fast_pskip=1 / chroma_qp_offset=-3 / threads=6 / lookahead_threads=1 /
sliced_threads=0 / nr=0 / decimate=1 / interlaced=0 / bluray_compat=0 / constrained_intra=0 / bframes=3 / b_pyramid=2 / b_adapt=2 / b_bias=0 / direct=3 /
weightb=1 / open_gop=0 / weightp=2 / keyint=250 / keyint_min=25 / scenecut=40 / intra_refresh=0 / rc_lookahead=60 / rc=2pass / mbtree=1 / bitrate=1100 /
ratetol=1.0 / qcomp=0.60 / qpmin=0 / qpmax=69 / qpstep=4 / cplxblur=20.0 / qblur=0.5 / ip_ratio=1.40 / aq=1:1.00
Audio
ID : 1
Format : MPEG Audio
Format version : Version 1
Format profile : Layer 3
Mode : Joint stereo
Codec ID : 55
Codec ID/Hint : MP3
Duration : 30mn 31s
Bit rate mode : Constant
Bit rate : 224 Kbps
Channel(s) : 2 channels
Sampling rate : 48.0 KHz
Stream size : 48.9 MiB (17%)
Alignment : Split accross interleaves
Interleave, duration : 40 ms (1.00 video frame)
Interleave, preload duration : 500 ms

Скриншоты

[teatrix.ru].t22532.torrent 
Торрент: Зарегистрирован [ 2016-03-21 00:16 ] · 11DB5D4C8D7B8F4E2F4AE9D91C7053A1ECD3950E

Скачать .torrent

Скачать

12 KB

Статус: проверено
Скачан: 0 раз
Размер: 291 MB
terms.php



Быстрый ответ

Имя:

      
Для отправки сообщений необходимо включить JavaScript
Показать сообщения:    

Текущее время: 09-Дек 22:22

Часовой пояс: UTC + 3


Вы можете начинать темы
Вы можете отвечать на сообщения
Вы не можете редактировать свои сообщения
Вы не можете удалять свои сообщения
Вы не можете голосовать в опросах
Вы не можете прикреплять файлы к сообщениям
Вы можете скачивать файлы