(Classical) Андрес Исаси – Симфония № 2, Сюита № 2 / Andres Isasi – Symphony No. 2 & Orchestral suite No. 2 (Bilbao Symphony Orchestra, Juan Jose Mena) - 2004, FLAC (image+.cue) lossless


 

[Цитировать]

Андрес Исаси – Симфония № 2, Сюита № 2 / Andrés Isasi – Symphony No. 2 & Orchestral suite No. 2 (Bilbao Symphony Orchestra, Juan José Mena)
Жанр: Classical
Страна-производитель диска: Канада
Год издания диска: 2004
Издатель (лейбл): Naxos
Номер по каталогу: 8.557584
Дата записи: 29 — 31 августа 2001 г., Бильбао.
Аудиокодек: FLAC
Тип рипа: image+.cue
Битрейт аудио: lossless
Продолжительность: 00:56:08
Источник: mostlymodernclassicalmusic
Наличие сканов в содержимом раздачи: да
Треклист:-Андрес Исаси-и-Линарес, маркиз де Барамбьо (1890 — 1940).-Симфония № 2 g-moll, op. 23 (перв. исп. 1918).
01. I. Adagio-посвящение (Widmung). — Allegro appassionato [12:21].
02. II. Adagio [11:46].
03. III. Scherzo. Presto [07:38].
04. IV. Molto allegro e risoluto [12:13].
Сюита для оркестра № 2 E-dur, op. 21.
05. I. Идиллия. Andante, con sentimento un poco austero [04:28].
06. II. Бурлеск. Allegretto [03:07].
07. III. Фуга. Allegro [04:08].-Исполнители:
Bilbao Symphony Orchestra.
Дирижер Juan José Mena.-

Лог создания рипа

Exact Audio Copy V1.1 from 23. June 2015
EAC extraction logfile from 27. October 2015, 11:11
Isasi, Andres / Symphony No.2, op.23 - Suite o.2, op.21 - Mena-BilbaoSO
Used drive : TSSTcorpCDDVDW TS-T633C Adapter: 1 ID: 0
Read mode : Secure
Utilize accurate stream : Yes
Defeat audio cache : Yes
Make use of C2 pointers : No
Read offset correction : 6
Overread into Lead-In and Lead-Out : No
Fill up missing offset samples with silence : Yes
Delete leading and trailing silent blocks : No
Null samples used in CRC calculations : Yes
Used interface : Native Win32 interface for Win NT & 2000
Gap handling : Appended to previous track
Used output format : User Defined Encoder
Selected bitrate : 1024 kBit/s
Quality : High
Add ID3 tag : No
Command line compressor : R:\Exact Audio Copy\FLAC\flac.exe
Additional command line options : -V -0 -T "Comment=Ripped by Tapaz9/Johnston" -T "artist=%artist%" -T "title=%title%" -T "album=%albumtitle%" -T "date=%year%" -T "tracknumber=%tracknr%" -T "genre=%genre%" %source%
TOC of the extracted CD
Track | Start | Length | Start sector | End sector
---------------------------------------------------------
1 | 0:00.00 | 12:25.40 | 0 | 55914
2 | 12:25.40 | 11:49.10 | 55915 | 109099
3 | 24:14.50 | 7:41.40 | 109100 | 143714
4 | 31:56.15 | 12:21.36 | 143715 | 199325
5 | 44:17.51 | 4:30.17 | 199326 | 219592
6 | 48:47.68 | 3:10.01 | 219593 | 233843
7 | 51:57.69 | 4:07.66 | 233844 | 252434
Track 1
Filename R:\Musique\Isasi, Andres\Isasi_Symphony2\01 - Isasi - Symphony No.2, op.23 - I. Adagio-Widmung-Allegro appassionato.wav
Pre-gap length 0:00:02.00
Peak level 99.8 %
Extraction speed 12.2 X
Track quality 100.0 %
Copy CRC F96EA03F
Copy OK
Track 2
Filename R:\Musique\Isasi, Andres\Isasi_Symphony2\02 - Isasi - Symphony No.2, op.23 - II. Adagio.wav
Peak level 74.1 %
Extraction speed 11.9 X
Track quality 99.9 %
Copy CRC D17D61DC
Copy OK
Track 3
Filename R:\Musique\Isasi, Andres\Isasi_Symphony2\03 - Isasi - Symphony No.2, op.23 - III. Scherzo. Presto.wav
Peak level 86.9 %
Extraction speed 12.0 X
Track quality 100.0 %
Copy CRC 0FFD803A
Copy OK
Track 4
Filename R:\Musique\Isasi, Andres\Isasi_Symphony2\04 - Isasi - Symphony No.2, op.23 - IV. Molto allegro e risoluto.wav
Peak level 94.7 %
Extraction speed 12.4 X
Track quality 100.0 %
Copy CRC 5C34C807
Copy OK
Track 5
Filename R:\Musique\Isasi, Andres\Isasi_Symphony2\05 - Isasi - Suite No.2 in E, op.21 - I. Idyll. Andante, con sentimiento.wav
Peak level 74.1 %
Extraction speed 10.5 X
Track quality 99.9 %
Copy CRC 8CABD6C9
Copy OK
Track 6
Filename R:\Musique\Isasi, Andres\Isasi_Symphony2\06 - Isasi - Suite No.2 in E, op.21 - II. Burleske. Allegretto.wav
Peak level 83.2 %
Extraction speed 11.0 X
Track quality 100.0 %
Copy CRC 2D51DCDC
Copy OK
Track 7
Filename R:\Musique\Isasi, Andres\Isasi_Symphony2\07 - Isasi - Suite No.2 in E, op.21 - III. Fugue. Allegro.wav
Peak level 100.0 %
Extraction speed 11.4 X
Track quality 100.0 %
Copy CRC 1889DBCF
Copy OK
No errors occurred
End of status report
==== Log checksum 57DE2DE7165FCD418698AB627C260E660B9BB3325923F3BF9DFD3CFBBEB105B2 ====

Содержание индексной карты (.CUE)

REM GENRE Classical
REM DATE 2001
REM DISCID 710D2507
REM COMMENT "ExactAudioCopy v1.1"
PERFORMER "Juan Jose Mena"
TITLE "Isasi – Symphony No. 2 & Suite No. 2 – Juan Jose Mena"
FILE "01 - Isasi - Symphony No. 2 in G minor, Op. 23 - I. Adagio-Widmung - Allegro appassionato.flac" WAVE
TRACK 01 AUDIO
TITLE "Isasi - Symphony No. 2 in G minor, Op. 23 - I. Adagio-Widmung - Allegro appassionato"
PERFORMER "Juan Jose Mena"
INDEX 01 00:00:00
FILE "02 - Isasi - Symphony No. 2 in G minor, Op. 23 - II. Adagio.flac" WAVE
TRACK 02 AUDIO
TITLE "Isasi - Symphony No. 2 in G minor, Op. 23 - II. Adagio"
PERFORMER "Juan Jose Mena"
INDEX 01 00:00:00
FILE "03 - Isasi - Symphony No. 2 in G minor, Op. 23 - III. Scherzo. Presto.flac" WAVE
TRACK 03 AUDIO
TITLE "Isasi - Symphony No. 2 in G minor, Op. 23 - III. Scherzo. Presto"
PERFORMER "Juan Jose Mena"
INDEX 01 00:00:00
FILE "04 - Isasi - Symphony No. 2 in G minor, Op. 23 - IV. Molto allegro e risoluto.flac" WAVE
TRACK 04 AUDIO
TITLE "Isasi - Symphony No. 2 in G minor, Op. 23 - IV. Molto allegro e risoluto"
PERFORMER "Juan Jose Mena"
INDEX 01 00:00:00
FILE "05 - Isasi - Suite No. 2 in E major, Op. 21 - I. Idyll. Andante, con sentimento.flac" WAVE
TRACK 05 AUDIO
TITLE "Isasi - Suite No. 2 in E major, Op. 21 - I. Idyll. Andante, con sentimento"
PERFORMER "Juan Jose Mena"
INDEX 01 00:00:00
FILE "06 - Isasi - Suite No. 2 in E major, Op. 21 - II. Burleske. Allegretto.flac" WAVE
TRACK 06 AUDIO
TITLE "Isasi - Suite No. 2 in E major, Op. 21 - II. Burleske. Allegretto"
PERFORMER "Juan Jose Mena"
INDEX 01 00:00:00
FILE "07 - Isasi - Suite No. 2 in E major, Op. 21 - III. Fugue. Allegro.flac" WAVE
TRACK 07 AUDIO
TITLE "Isasi - Suite No. 2 in E major, Op. 21 - III. Fugue. Allegro"
PERFORMER "Juan Jose Mena"
INDEX 01 00:00:00

Вариант индексной карты (.CUE) с выставленными зазорами

REM GENRE Classical
REM DATE 2001
REM DISCID 710D2507
REM COMMENT "ExactAudioCopy v1.1"
PERFORMER "Juan Jose Mena"
TITLE "Isasi – Symphony No. 2 & Suite No. 2 – Juan Jose Mena"
FILE "01 - Isasi - Symphony No. 2 in G minor, Op. 23 - I. Adagio-Widmung - Allegro appassionato.flac" WAVE
TRACK 01 AUDIO
TITLE "Isasi - Symphony No. 2 in G minor, Op. 23 - I. Adagio-Widmung - Allegro appassionato"
PERFORMER "Juan Jose Mena"
INDEX 00 00:00:00
INDEX 01 00:05:32
TRACK 02 AUDIO
INDEX 00 12:23:44
FILE "02 - Isasi - Symphony No. 2 in G minor, Op. 23 - II. Adagio.flac" WAVE
TITLE "Isasi - Symphony No. 2 in G minor, Op. 23 - II. Adagio"
PERFORMER "Juan Jose Mena"
INDEX 01 00:00:00
TRACK 03 AUDIO
INDEX 00 11:46:21
FILE "03 - Isasi - Symphony No. 2 in G minor, Op. 23 - III. Scherzo. Presto.flac" WAVE
TITLE "Isasi - Symphony No. 2 in G minor, Op. 23 - III. Scherzo. Presto"
PERFORMER "Juan Jose Mena"
INDEX 01 00:00:00
TRACK 04 AUDIO
INDEX 00 07:39:60
FILE "04 - Isasi - Symphony No. 2 in G minor, Op. 23 - IV. Molto allegro e risoluto.flac" WAVE
TITLE "Isasi - Symphony No. 2 in G minor, Op. 23 - IV. Molto allegro e risoluto"
PERFORMER "Juan Jose Mena"
INDEX 01 00:00:00
TRACK 05 AUDIO
INDEX 00 12:13:17
FILE "05 - Isasi - Suite No. 2 in E major, Op. 21 - I. Idyll. Andante, con sentimento.flac" WAVE
TITLE "Isasi - Suite No. 2 in E major, Op. 21 - I. Idyll. Andante, con sentimento"
PERFORMER "Juan Jose Mena"
INDEX 01 00:00:00
TRACK 06 AUDIO
INDEX 00 04:29:31
FILE "06 - Isasi - Suite No. 2 in E major, Op. 21 - II. Burleske. Allegretto.flac" WAVE
TITLE "Isasi - Suite No. 2 in E major, Op. 21 - II. Burleske. Allegretto"
PERFORMER "Juan Jose Mena"
INDEX 01 00:00:00
TRACK 07 AUDIO
INDEX 00 03:08:51
FILE "07 - Isasi - Suite No. 2 in E major, Op. 21 - III. Fugue. Allegro.flac" WAVE
TITLE "Isasi - Suite No. 2 in E major, Op. 21 - III. Fugue. Allegro"
PERFORMER "Juan Jose Mena"
INDEX 01 00:00:00
INDEX 02 04:01:06

Лог проверки качества

AUDIOCHECKER v2.0 beta (build 457) - by Dester - opdester@freemail.hu
~~~~~~~~~~~~~~~~~~~~~~~~~~~~~~~~~~
-=== DO NOT EDIT THIS FILE! ===-
Path: ...\Isasi – Symphony No. 2 & Suite No. 2 (Juan Jose Mena)
1 -=- 01 - Isasi - Symphony No. 2 in G minor, Op. 23 - I. Adagio-Widmung - Allegro appassionato.flac -=- CDDA (100%)
2 -=- 02 - Isasi - Symphony No. 2 in G minor, Op. 23 - II. Adagio.flac -=- CDDA (100%)
3 -=- 03 - Isasi - Symphony No. 2 in G minor, Op. 23 - III. Scherzo. Presto.flac -=- CDDA (100%)
4 -=- 04 - Isasi - Symphony No. 2 in G minor, Op. 23 - IV. Molto allegro e risoluto.flac -=- CDDA (100%)
5 -=- 05 - Isasi - Suite No. 2 in E major, Op. 21 - I. Idyll. Andante, con sentimento.flac -=- CDDA (100%)
6 -=- 06 - Isasi - Suite No. 2 in E major, Op. 21 - II. Burleske. Allegretto.flac -=- CDDA (99%)
7 -=- 07 - Isasi - Suite No. 2 in E major, Op. 21 - III. Fugue. Allegro.flac -=- CDDA (100%)
Summary 99,86% CDDA
194818836
-



Показать сообщения:    

Текущее время: 06-Дек 11:11

Часовой пояс: UTC + 3


Вы не можете начинать темы
Вы не можете отвечать на сообщения
Вы не можете редактировать свои сообщения
Вы не можете удалять свои сообщения
Вы не можете голосовать в опросах
Вы не можете прикреплять файлы к сообщениям
Вы не можете скачивать файлы