[TR24][SM][OF] Lang Lang - Liszt - My Piano Hero - 2011 (Classical)


Статистика раздачи [Обновить пиров]
Размер:  1001 MB   |    Зарегистрирован:  8 месяцев 20 дней   |    Скачан:  1 раз

Полного источника не было: 8 месяцев 5 дней

 
   
 
 
 

[Цитировать]

Lang Lang / Liszt - My Piano Hero
Формат записи/Источник записи: [TR24][SM][OF]
Наличие водяных знаков: Нет
Год издания/переиздания диска: 2011
Жанр: Classical
Издатель(лейбл): Sony Classical
Продолжительность: 1:05:37
Треклист:
1 Romance "O pourquoi donc" in E Minor, S. 169 00:03:05
2 La campanella in G-Sharp Minor from Grandes études de Paganini, S. 141 / 3 00:04:47
3 Consolation No. 3 in D-Flat Major, S. 172 00:04:19
4 Grand Galop chromatique in E-Flat Major, S. 219 00:03:58
5 Liebestraum No. 3 in A-Flat Major, S. 541 / 3 00:04:53
6 Hungarian Rhapsody No. 6 in D-Flat Major, S. 244 / 6 00:07:19
7 Trois études de concert in D-Flat Major, S. 144 / 3: Un sospiro 00:05:26
8 Rakoczy March from Hungarian Rhapsody No. 15 in A Minor, S. 244 / 15 (Horowitz version) 00:05:43
9 Ave Maria, S. 558 00:06:31
Piano Concerto No. 1 in E-Flat Major, S 124 (Franz Liszt)
10 I. Allegro maestoso 00:05:47
11 II. Quasi adagio - Allegretto vivace - Allegro animato 00:09:33
12 III. Allegro marziale animato 00:04:09
Контейнер: FLAC (*.flac)
Тип рипа: tracks
Разрядность: 24/96
Формат: PCM
Количество каналов: 2.0

Лог проверки качества

foobar2000 1.3.8 / Dynamic Range Meter 1.1.1
log date: 2015-11-03 17:22:56
--------------------------------------------------------------------------------
Analyzed: Christopher Alder, Producer - Franz Liszt, Composer - Franz Schubert, Composer - Lang Lang, Piano - Stephan Flock, Engineer / Lang Lang : Liszt - My Piano Hero (1)
Christopher Alder, Producer - Franz Liszt, Composer - Lang Lang, Piano - René Möller, Recording Engineer - Stephan Flock, Engineer - Valery Gergiev, Performer - Wiener Philharmoniker, Performer / Lang Lang : Liszt - My Piano Hero (2-4)
Christopher Alder, Producer - Franz Liszt, Composer - Lang Lang, Piano - Stephan Flock, Engineer / Lang Lang : Liszt - My Piano Hero (5-12)
--------------------------------------------------------------------------------
DR Peak RMS Duration Track
--------------------------------------------------------------------------------
DR15 -7.09 dB -28.51 dB 6:32 09-Ave Maria, S. 558
DR15 -0.10 dB -21.95 dB 5:48 10-Piano Concerto No. 1 in E-Flat Major, S 124:I. Allegro maestoso
DR16 -0.06 dB -23.52 dB 9:34 11-Piano Concerto No. 1 in E-Flat Major, S 124:II. Quasi adagio - Allegretto vivace - Allegro animato
DR14 -0.05 dB -20.00 dB 4:10 12-Piano Concerto No. 1 in E-Flat Major, S 124:III. Allegro marziale animato
DR13 -8.48 dB -29.22 dB 3:05 01-Romance "O pourquoi donc" in E Minor, S. 169
DR13 -1.96 dB -22.00 dB 4:48 02-La campanella in G-Sharp Minor from Grandes études de Paganini, S. 141 / 3
DR16 -8.52 dB -33.38 dB 4:20 03-Consolation No. 3 in D-Flat Major, S. 172
DR14 -0.61 dB -19.63 dB 3:58 04-Grand Galop chromatique in E-Flat Major, S. 219
DR14 -5.05 dB -26.13 dB 4:53 05-Liebestraum No. 3 in A-Flat Major, S. 541 / 3
DR14 -0.80 dB -20.94 dB 7:19 06-Hungarian Rhapsody No. 6 in D-Flat Major, S. 244 / 6
DR13 -7.77 dB -25.97 dB 5:27 07-Trois études de concert in D-Flat Major, S. 144 / 3: Un sospiro
DR13 -1.16 dB -18.39 dB 5:44 08-Rakoczy March from Hungarian Rhapsody No. 15 in A Minor, S. 244 / 15
--------------------------------------------------------------------------------
Number of tracks: 12
Official DR value: DR14
Samplerate: 96000 Hz
Channels: 2
Bits per sample: 24
Bitrate: 2267 kbps
Codec: FLAC
================================================================================
Источник (релизер):
Оркестр: Wiener Philharmoniker (треки 10-12)
Композитор: Franz Liszt
Дирижер: Valery Gergiev (треки 10-12)
[teatrix.ru].t22537.torrent 
Торрент: Зарегистрирован [ 2016-03-21 00:21 ] · 6EDE20D7C3DDC6929BCD091F99B51CF9B67DE6C9

Скачать .torrent

Скачать

21 KB

Статус: проверено
Скачан: 1 раз
Размер: 1001 MB
terms.php



Быстрый ответ

Имя:

      
Для отправки сообщений необходимо включить JavaScript
Показать сообщения:    

Текущее время: 10-Дек 02:07

Часовой пояс: UTC + 3


Вы можете начинать темы
Вы можете отвечать на сообщения
Вы не можете редактировать свои сообщения
Вы не можете удалять свои сообщения
Вы не можете голосовать в опросах
Вы не можете прикреплять файлы к сообщениям
Вы можете скачивать файлы