Идиот / Idioot (Райнер Сарнет / Rainer Sarnet) [2011, Эстония, драма, экранизация, DVDRip] VO (Fatumovich) + Sub Rus + Original


Статистика раздачи [Обновить пиров]
Размер:  2.19 GB   |    Зарегистрирован:  8 месяцев 18 дней   |    Скачан:  0 раз

Полного источника не было: Никогда

 
   
 
 
 

[Цитировать]

Идиот / Idioot- Страна: Эстония
Жанр: драма, экранизация
Год выпуска: 2011
Продолжительность: 02:06:10
Перевод: Одноголосый закадровый - Fatumovich
Cубтитры: русские
Оригинальная аудиодорожка: эстонский
Режиссер: Райнер Сарнет / Rainer Sarnet
В ролях: Ристо Кюбар, Катарийна Унт, Тамбет Туйск, Айн Лутсепп, Тийна Таурайте, Роман Баскин, Сандра Юкскюла-Уусберг, Рагне Веэнсалу, Юлле Кальюсте, Таави Ээлмаа, Юхан Ульфсак, Кайдо Веермяэ, Лийна Вахтрик и др.-Описание: Оригинальная эстонская экранизация романа Федора Достоевского "Идиот" в трактовке режиссера и сценариста Райнера Сарнета. Одна из главных кинопремьер 2011 года в Эстонии.
Фильм рассказывает о наивном князе Мышкине, пытающемся спасти душу женщины, обрекшей себя на гибель. "Идиота" можно рассматривать как страстную и жгучую историю любви или философский рассказ о человеке, чье непосредственное поведение вызывает в других моральное недовольство и потребность в доброте.
Райнер Сарнет снял своего "Идиота"в крайне оригинальной манере, которая своиственна продюсерской компании "Бездомный Боб", прославившейся выпуском таких кинохитов, как "Ласнамяэский бал" и "Искушение святого Тыну". Подчеркнутая условность декораций, представление о мире как о бесцветном, беспросветном, очень темном царстве, которое в финале непостижимым образом озаряется лучом света. Тонкая, очень театральная игра актеров. Плавный стиль повествования. И, конечно, требование к зрителю принять режиссерские правила игры. Никаких поблажек, никакой голливудщины. Можно констатировать, что Достоевский для Homeless Bob Production – родной автор, а "Идиот" – идеальная основа для экранизации: тут и психологизм, и условная реальность, и, главное, вечный петербургский сумрак, по которому бродит между Настасьей Филипповной и Аглаей Епанчиной неприкаянный князь Мышкин...
"Идиот" Райнера Сарнета получился ровно таким, как надо, – со своим, особенным и очень человеческим лицом. Это интересная, тонкая и немного авангардистская версия русской классики. Достоевский - всемирное достояние, а проблемы и ценности, которые он затрагивал - касались и будут касаться всегда и всех.-Сэмпл: http://multi-up.com/1074078
Качество видео: DVDRip
Формат видео: AVI
Видео: XVID 720x400 (16:9) 25fps 1862kbps
Аудио: MP3 44100Hz 160kbps stereo - русский
Аудио 2: AC-3 48000Hz 448kbps 6ch - оригинал
Формат субтитров: softsub (SRT)

Фрагмент субтитров

484
01:05:18,972 --> 01:05:21,098
Кто здесь к вам ходит?
485
01:05:21,532 --> 01:05:24,692
Ты ведь один? Не женат?
- Нет, не женат.
486
01:05:25,092 --> 01:05:29,377
Сам обещал при всех
почти что жениться! - Почти что.
487
01:05:31,612 --> 01:05:33,851
Для тебя есть что-нибудь святое?
488
01:05:34,092 --> 01:05:39,101
Если ты все еще с ней встречаешься,
зачем тогда Аглае весточки шлешь?
489
01:05:44,412 --> 01:05:46,697
Да, посылал.
490
01:05:49,692 --> 01:05:54,699
Мне было так плохо, что захотелось
кому-нибудь что-то красивое написать.
491
01:07:47,092 --> 01:07:49,774
Где сто тысяч?
492
01:07:50,412 --> 01:07:53,140
Поищи в настасьиных трусиках.
493
01:09:15,532 --> 01:09:19,056
Было красиво, но спина разболелась.
494
01:09:26,092 --> 01:09:27,740
Посмотри направо.
495
01:09:32,092 --> 01:09:34,172
Тебе нравится это место?
496
01:09:35,452 --> 01:09:37,418
Очень красиво.
497
01:09:37,572 --> 01:09:41,492
Иногда перед восходом солнца,
часиков в семь, я прихожу посидеть.
498
01:10:53,412 --> 01:10:56,856
Не бойся,
я с ножом к горлу не пристану.
499
01:11:03,292 --> 01:11:05,736
А теперь я к тебе от неё.
500
01:11:06,972 --> 01:11:09,336
Ей что-то сказать тебе очень надо!
501
01:11:09,492 --> 01:11:11,140
Что сказать?

MediaInfo

Общее
Полное имя : F:\Idioot\Idioot.avi
Формат : AVI
Формат/Информация : Audio Video Interleave
Профиль формата : OpenDML
Размер файла : 2,19 Гбайт
Продолжительность : 2 ч. 6 м.
Общий поток : 2488 Кбит/сек
Программа кодирования : VirtualDubMod 1.5.10.2 (build 2540/release)
Библиотека кодирования : VirtualDubMod build 2540/release
Видео
Идентификатор : 0
Формат : MPEG-4 Visual
Профиль формата : Advanced Simple@L5
Параметр BVOP формата : 2
Параметр QPel формата : Нет
Параметр GMC формата : Без точки перехода
Параметр матрицы формата : Default (MPEG)
Идентификатор кодека : XVID
Идентификатор кодека/Подсказка : XviD
Продолжительность : 2 ч. 6 м.
Битрейт : 1862 Кбит/сек
Ширина : 720 пикселей
Высота : 400 пикселей
Соотношение сторон : 16:9
Частота кадров : 25,000 кадров/сек
Цветовое пространство : YUV
Субдискретизация насыщенности : 4:2:0
Битовая глубина : 8 бит
Тип развёртки : Прогрессивная
Метод сжатия : С потерями
Бит/(Пиксели*Кадры) : 0.259
Размер потока : 1,64 Гбайт (75%)
Библиотека кодирования : XviD 64
Аудио #1
Идентификатор : 1
Формат : MPEG Audio
Версия формата : Version 1
Профиль формата : Layer 3
Режим : Joint stereo
Идентификатор кодека : 55
Идентификатор кодека/Подсказка : MP3
Продолжительность : 2 ч. 6 м.
Вид битрейта : Постоянный
Битрейт : 160 Кбит/сек
Каналы : 2 канала
Частота : 44,1 КГц
Метод сжатия : С потерями
Размер потока : 144 Мбайт (6%)
Выравнивание : Разделение по промежуткам
Продолжительность промежутка : 40 мс. (1,00 видеокадр)
Время предзагрузки промежутка : 500 мс.
Аудио #2
Идентификатор : 2
Формат : AC-3
Формат/Информация : Audio Coding 3
Расширение режима : CM (complete main)
Параметр Endianness формата : Big
Идентификатор кодека : 2000
Продолжительность : 2 ч. 6 м.
Вид битрейта : Постоянный
Битрейт : 448 Кбит/сек
Каналы : 6 каналов
Расположение каналов : Front: L C R, Side: L R, LFE
Частота : 48,0 КГц
Битовая глубина : 16 бит
Метод сжатия : С потерями
Размер потока : 404 Мбайт (18%)
Выравнивание : Разделение по промежуткам
Продолжительность промежутка : 40 мс. (1,00 видеокадр)
Время предзагрузки промежутка : 500 мс.

Скриншот c названием фильма

Скриншоты

[teatrix.ru].t22539.torrent 
Торрент: Зарегистрирован [ 2016-03-21 00:19 ] · 3234D294417150BAA9C1CDB5171C540AA66E12CB

Скачать .torrent

Скачать

12 KB

Статус: проверено
Скачан: 0 раз
Размер: 2.19 GB
terms.php



Быстрый ответ

Имя:

      
Для отправки сообщений необходимо включить JavaScript
Показать сообщения:    

Текущее время: 08-Дек 19:12

Часовой пояс: UTC + 3


Вы можете начинать темы
Вы можете отвечать на сообщения
Вы не можете редактировать свои сообщения
Вы не можете удалять свои сообщения
Вы не можете голосовать в опросах
Вы не можете прикреплять файлы к сообщениям
Вы можете скачивать файлы