(Classical) Mendelssohn - Piano Concertos Nos. 1, 2 & Piano Concerto in A minor, MWV 02 (Musikkollegium Winterthur, Oliver Schnyder, Douglas Boyd) - 2013, FLAC (image+.cue) lossless


Статистика раздачи [Обновить пиров]
Размер:  280 MB   |    Зарегистрирован:  8 месяцев 17 дней   |    Скачан:  0 раз

Полного источника не было: Никогда

 
   
 
 
 

[Цитировать]

Mendelssohn - The Piano Concertos (Musikkollegium Winterthur, Oliver Schnyder, Douglas Boyd)
Жанр: Classical
Год издания диска: 2013
Издатель (лейбл): RCA Red Seal
Дата записи: 2012
Аудиокодек: FLAC
Тип рипа: image+.cue
Битрейт аудио: lossless
Продолжительность: 01:17:26
Источник: собственный рип
Наличие сканов в содержимом раздачи: да
Треклист:
Piano Concerto No.1 in G minor, Op.25
- I. Molto allegro
- II. Andante
- III. Presto
Piano Concerto No.2 in D minor, Op.40
- I. Allegro
- II. Adagio
- III. Presto
Piano Concerto in A minor, MWV 02
- I. Allegro
- II. Adagio
- III. Allegro
Исполнители:
Musikkollegium Winterthur,
Oliver Schnyder - piano,
Douglas Boyd - conductor

Лог создания рипа

Exact Audio Copy V1.1 from 23. June 2015
EAC extraction logfile from 3. November 2015, 17:26
Oliver Schnyder / Mendelssohn: The Piano Concertos
Used drive : Optiarc DVD RW AD-7260S Adapter: 1 ID: 0
Read mode : Secure
Utilize accurate stream : Yes
Defeat audio cache : Yes
Make use of C2 pointers : No
Read offset correction : 48
Overread into Lead-In and Lead-Out : No
Fill up missing offset samples with silence : Yes
Delete leading and trailing silent blocks : No
Null samples used in CRC calculations : Yes
Used interface : Native Win32 interface for Win NT & 2000
Used output format : User Defined Encoder
Selected bitrate : 1024 kBit/s
Quality : High
Add ID3 tag : No
Command line compressor : C:\Program Files (x86)\Exact Audio Copy\FLAC\FLAC.EXE
Additional command line options : -6 -V -T "ARTIST=%artist%" -T "TITLE=%title%" -T "ALBUM=%albumtitle%" -T "DATE=%year%" -T "TRACKNUMBER=%tracknr%" -T "GENRE=%genre%" -T "COMMENT=%comment%" -T "BAND=%albuminterpret%" -T "ALBUMARTIST=%albuminterpret%" -T "COMPOSER=%composer%" %haslyrics%--tag-from-file=LYRICS="%lyricsfile%"%haslyrics% -T "DISCNUMBER=%cdnumber%" -T "TOTALDISCS=%totalcds%" -T "TOTALTRACKS=%numtracks%" %hascover%--picture="%coverfile%"%hascover% %source% -o %dest%
TOC of the extracted CD
Track | Start | Length | Start sector | End sector
---------------------------------------------------------
1 | 0:00.00 | 7:20.27 | 0 | 33026
2 | 7:20.27 | 5:58.67 | 33027 | 59943
3 | 13:19.19 | 6:40.17 | 59944 | 89960
4 | 19:59.36 | 9:23.22 | 89961 | 132207
5 | 29:22.58 | 7:25.14 | 132208 | 165596
6 | 36:47.72 | 7:02.36 | 165597 | 197282
7 | 43:50.33 | 14:22.42 | 197283 | 261974
8 | 58:13.00 | 8:50.32 | 261975 | 301756
9 | 67:03.32 | 10:22.11 | 301757 | 348417
Range status and errors
Selected range
Filename D:\Mendelssohn. The Piano Concertos. Oliver Schnyder.wav
Peak level 99.5 %
Extraction speed 4.5 X
Range quality 100.0 %
Test CRC DA4424B7
Copy CRC DA4424B7
Copy OK
No errors occurred
AccurateRip summary
Track 1 accurately ripped (confidence 6) [B71BD520] (AR v2)
Track 2 accurately ripped (confidence 6) [D90BFBAE] (AR v2)
Track 3 accurately ripped (confidence 6) [2179F9D7] (AR v2)
Track 4 accurately ripped (confidence 6) [657BE200] (AR v2)
Track 5 accurately ripped (confidence 6) [B367BFA1] (AR v2)
Track 6 cannot be verified as accurate (confidence 5) [A54B7EEB], AccurateRip returned [E1E3CC65] (AR v2)
Track 7 accurately ripped (confidence 6) [1FE90E3E] (AR v2)
Track 8 accurately ripped (confidence 6) [6D1A7DFD] (AR v2)
Track 9 accurately ripped (confidence 6) [5B325747] (AR v2)
8 трек(и) скопированы точно
1 трек(и) не удалось проверить на точность
Some tracks could not be verified as accurate
End of status report
---- CUETools DB Plugin V2.1.6
[CTDB TOCID: 8NoMllp4a3wi6rAXQ0VwtZ_tYR4-] found
Submit result: 8NoMllp4a3wi6rAXQ0VwtZ_tYR4- has been submitted
Track | CTDB Status
1 | (3/3) Accurately ripped
2 | (3/3) Accurately ripped
3 | (3/3) Accurately ripped
4 | (3/3) Accurately ripped
5 | (3/3) Accurately ripped
6 | (3/3) Differs in 165 samples @06:23:16
7 | (3/3) Accurately ripped
8 | (3/3) Accurately ripped
9 | (3/3) Accurately ripped
If you are sure that your rip contains errors, you can use CUETools to repair it.

Содержание индексной карты (.CUE)

REM GENRE Classical
REM DATE 2013
REM DISCID 65122509
REM COMMENT "ExactAudioCopy v1.1"
PERFORMER "Oliver Schnyder"
TITLE "Mendelssohn: The Piano Concertos"
FILE "Mendelssohn. The Piano Concertos. Oliver Schnyder.flac" WAVE
TRACK 01 AUDIO
TITLE "Piano Concerto No. 1 in G minor, Op. 25: I. Molto allegro con fuoco"
PERFORMER "Oliver Schnyder"
FLAGS DCP
INDEX 01 00:00:00
TRACK 02 AUDIO
TITLE "Piano Concerto No. 1 in G minor, Op. 25: II. Andante"
PERFORMER "Oliver Schnyder"
FLAGS DCP
INDEX 01 07:20:27
TRACK 03 AUDIO
TITLE "Piano Concerto No. 1 in G minor, Op. 25: III. Presto - Molto allegro e vivace"
PERFORMER "Oliver Schnyder"
FLAGS DCP
INDEX 01 13:19:19
TRACK 04 AUDIO
TITLE "Piano Concerto No. 2 in D minor, Op. 40: I. Allegro appassionato"
PERFORMER "Oliver Schnyder"
FLAGS DCP
INDEX 00 19:46:14
INDEX 01 19:59:36
TRACK 05 AUDIO
TITLE "Piano Concerto No. 2 in D minor, Op. 40: II. Adagio. Molto sostenuto"
PERFORMER "Oliver Schnyder"
FLAGS DCP
INDEX 01 29:22:58
TRACK 06 AUDIO
TITLE "Piano Concerto No. 2 in D minor, Op. 40: III. Finale. Presto scherzando"
PERFORMER "Oliver Schnyder"
FLAGS DCP
INDEX 01 36:47:72
TRACK 07 AUDIO
TITLE "Piano Concerto in A minor, MWV 0 2 (1822): I. Allegro"
PERFORMER "Oliver Schnyder"
FLAGS DCP
INDEX 00 43:38:50
INDEX 01 43:50:33
TRACK 08 AUDIO
TITLE "Piano Concerto in A minor, MWV 0 2 (1822): II. Adagio"
PERFORMER "Oliver Schnyder"
FLAGS DCP
INDEX 01 58:13:00
TRACK 09 AUDIO
TITLE "Piano Concerto in A minor, MWV 0 2 (1822): III. Finale. Allegro ma non troppo"
PERFORMER "Oliver Schnyder"
FLAGS DCP
INDEX 01 67:03:32
[teatrix.ru].t22541.torrent 
Торрент: Зарегистрирован [ 2016-03-21 00:23 ] · A535DE31D48B31DE443627A7E5C8C1846CEFFF5A

Скачать .torrent

Скачать

23 KB

Статус: проверено
Скачан: 0 раз
Размер: 280 MB
terms.php



Быстрый ответ

Имя:

      
Для отправки сообщений необходимо включить JavaScript
Показать сообщения:    

Текущее время: 07-Дек 13:42

Часовой пояс: UTC + 3


Вы можете начинать темы
Вы можете отвечать на сообщения
Вы не можете редактировать свои сообщения
Вы не можете удалять свои сообщения
Вы не можете голосовать в опросах
Вы не можете прикреплять файлы к сообщениям
Вы можете скачивать файлы