Валерий Чкалов. Жил-был лётчик (Михаил Дегтярь) [2014, документальный, TVRip]


Статистика раздачи [Обновить пиров]
Размер:  579 MB   |    Зарегистрирован:  8 месяцев 17 дней   |    Скачан:  0 раз

Полного источника не было: Никогда

 
   
 
 
 

[Цитировать]

Валерий Чкалов. Жил-был лётчик
Дата/Год выпуска: 2014
Страна: Россия
Жанр: документальный
Продолжительность: 00:44:04
Перевод: Не требуется
Режиссер: Михаил Дегтярь
Описание: Ранним утром 15 декабря 1938 года Чкалов приехал на Ходынский аэродром – предстояло испытать на взлёт новый истребитель И-180. В полётном задании было написано – пройти один круг и вернуться на аэродром. Но Валерий Чкалов решил пойти на второй круг и мотор заглох… Чкалов упорно старался запустить двигатель, но всё бесполезно. Выход один – спланировать на аэродром и пойти на посадку. До последней секунды он пытался спасти самолёт...
Версий о гибели Чкалова множество, но ни одна не проясняет ситуацию до конца. Жизнь и смерть Чкалова – это история необычного лётчика, который всегда пытался действовать вопреки правилам и приказам, выходить за пределы возможного. Такой уж был характер.
Участвуют: Николай Якубович – историк авиации, Вячеслав Фёдоров – биограф, Валерия Чкалова – дочь, Владимир Иванов – историк авиации, Владимир Король – историк, Георгий Байдуков – генерал-полковник авиации.Валерий Чкалов. Жил-был лётчик
Сэмпл: http://sendfile.su/1170223
качество: TVRip
формат: AVI
Видео: XviD, 1700 Кбит/сек, 704 x 392 (1.796), 25.000 fps
Аудио: МР3, 128 Кбит/сек, 2 канала, 48,0 КГц

MediaInfo

Общее
Полное имя : T:\Мои раздачи\Валерий Чкалов. Жил-был лётчик (2014)\Валерий Чкалов. Жил-был лётчик (2014).avi
Формат : AVI
Формат/Информация : Audio Video Interleave
Размер файла : 579 Мбайт
Продолжительность : 44 м.
Общий поток : 1838 Кбит/сек
Программа кодирования : VirtualDubMod 1.5.10.2 (build 2540/release)
Библиотека кодирования : VirtualDubMod build 2540/release
Видео
Идентификатор : 0
Формат : MPEG-4 Visual
Профиль формата : Advanced Simple@L5
Параметр BVOP формата : 2
Параметр QPel формата : Нет
Параметр GMC формата : Без точки перехода
Параметр матрицы формата : Default (H.263)
Идентификатор кодека : XVID
Идентификатор кодека/Подсказка : XviD
Продолжительность : 44 м.
Битрейт : 1700 Кбит/сек
Ширина : 704 пикселя
Высота : 392 пикселя
Соотношение сторон : 16:9
Частота кадров : 25,000 кадров/сек
Цветовое пространство : YUV
Субдискретизация насыщенности : 4:2:0
Битовая глубина : 8 бит
Тип развёртки : Прогрессивная
Метод сжатия : С потерями
Бит/(Пиксели*Кадры) : 0.246
Размер потока : 536 Мбайт (93%)
Библиотека кодирования : XviD 1.2.1 (UTC 2008-12-04)
Аудио
Идентификатор : 1
Формат : MPEG Audio
Версия формата : Version 1
Профиль формата : Layer 3
Идентификатор кодека : 55
Идентификатор кодека/Подсказка : MP3
Продолжительность : 44 м.
Вид битрейта : Постоянный
Битрейт : 128 Кбит/сек
Каналы : 2 канала
Частота : 48,0 КГц
Метод сжатия : С потерями
Размер потока : 40,3 Мбайт (7%)
Выравнивание : Соединение по промежуткам
Продолжительность промежутка : 40 мс. (1,00 видеокадр)
Время предзагрузки промежутка : 504 мс.
Библиотека кодирования : LAME3.98r
Настройки программы : -m s -V 4 -q 2 -lowpass 17 -b 128

Скриншоты

[teatrix.ru].t22542.torrent 
Торрент: Зарегистрирован [ 2016-03-21 00:24 ] · B988AD8E6D1CBF90A62C99ACFE9067FC85FDEA63

Скачать .torrent

Скачать

12 KB

Статус: проверено
Скачан: 0 раз
Размер: 579 MB
terms.php



Быстрый ответ

Имя:

      
Для отправки сообщений необходимо включить JavaScript
Показать сообщения:    

Текущее время: 07-Дек 21:19

Часовой пояс: UTC + 3


Вы можете начинать темы
Вы можете отвечать на сообщения
Вы не можете редактировать свои сообщения
Вы не можете удалять свои сообщения
Вы не можете голосовать в опросах
Вы не можете прикреплять файлы к сообщениям
Вы можете скачивать файлы