Его называли "Папа Иоффе" (Наталья Урвачева) [2005, документальный, TVRip]


Статистика раздачи [Обновить пиров]
Размер:  510 MB   |    Зарегистрирован:  8 месяцев 14 дней   |    Скачан:  1 раз

Полного источника не было: 2 дня 6 часов

 
   
 
 
 

[Цитировать]

Его называли "Папа Иоффе"
Дата/Год выпуска: 2005
Страна: Россия
Жанр: документальный
Продолжительность: 00:38:46
Перевод: Не требуется
Режиссер: Наталья Урвачева
Описание: По воспоминаниям, этот выдающийся ученый принадлежал к поколению романтиков в физике. А.Ф. Иоффе определил два главных направления развития отечественной физики: атомная энергетика и полупроводники, и если бы не его инициатива, то СССР получил бы атомное оружие гораздо позже и не известно, как в этом случае, выглядела бы сегодня карта мира. Им была проведена реформа физики в нашей стране, создана знаменитая ленинградская школа физики, откуда вышли академики А.П. Александров, Л.А. Арцимович, П.Л. Капица, И.В. Курчатов, Н.Н. Семенов и многие другие. В Физико-техническом институте его называли "папа Иоффе" за удивительную творческую атмосферу, необычайное внимание, которое он уделял молодым физикам
Доп. информация: Автор сценария - Надежда Виноградова
Сэмпл: http://sendfile.su/1170177
качество: TVRip
формат: AVI
Видео: XviD, 1700 Кбит/сек, 720 x 544 (1.324), 25.000 fps
Аудио: МР3, 128 Кбит/сек, 2 канала, 48,0 КГц

MediaInfo

Общее
Полное имя : T:\Мои раздачи\Его называли Папа Иоффе (2005)\Его называли Папа Иоффе (2005).avi
Формат : AVI
Формат/Информация : Audio Video Interleave
Размер файла : 510 Мбайт
Продолжительность : 38 м.
Общий поток : 1838 Кбит/сек
Программа кодирования : VirtualDubMod 1.5.10.2 (build 2540/release)
Библиотека кодирования : VirtualDubMod build 2540/release
Видео
Идентификатор : 0
Формат : MPEG-4 Visual
Профиль формата : Advanced Simple@L5
Параметр BVOP формата : 2
Параметр QPel формата : Нет
Параметр GMC формата : Без точки перехода
Параметр матрицы формата : Default (H.263)
Идентификатор кодека : XVID
Идентификатор кодека/Подсказка : XviD
Продолжительность : 38 м.
Битрейт : 1700 Кбит/сек
Ширина : 720 пикселей
Высота : 544 пикселя
Соотношение сторон : 4:3
Частота кадров : 25,000 кадров/сек
Цветовое пространство : YUV
Субдискретизация насыщенности : 4:2:0
Битовая глубина : 8 бит
Тип развёртки : Прогрессивная
Метод сжатия : С потерями
Бит/(Пиксели*Кадры) : 0.174
Размер потока : 471 Мбайт (93%)
Библиотека кодирования : XviD 1.2.1 (UTC 2008-12-04)
Аудио
Идентификатор : 1
Формат : MPEG Audio
Версия формата : Version 1
Профиль формата : Layer 3
Идентификатор кодека : 55
Идентификатор кодека/Подсказка : MP3
Продолжительность : 38 м.
Вид битрейта : Постоянный
Битрейт : 128 Кбит/сек
Каналы : 2 канала
Частота : 48,0 КГц
Метод сжатия : С потерями
Размер потока : 35,5 Мбайт (7%)
Выравнивание : Соединение по промежуткам
Продолжительность промежутка : 40 мс. (1,00 видеокадр)
Время предзагрузки промежутка : 504 мс.
Библиотека кодирования : LAME3.98r
Настройки программы : -m s -V 4 -q 2 -lowpass 17 -b 128

Скриншоты

[teatrix.ru].t22543.torrent 
Торрент: Зарегистрирован [ 2016-03-21 00:23 ] · 3BA381D14FAA5246307F8B58CAECAF0EE6B6B8B9

Скачать .torrent

Скачать

20 KB

Статус: проверено
Скачан: 1 раз
Размер: 510 MB
terms.php



Быстрый ответ

Имя:

      
Для отправки сообщений необходимо включить JavaScript
Показать сообщения:    

Текущее время: 04-Дек 04:55

Часовой пояс: UTC + 3


Вы можете начинать темы
Вы можете отвечать на сообщения
Вы не можете редактировать свои сообщения
Вы не можете удалять свои сообщения
Вы не можете голосовать в опросах
Вы не можете прикреплять файлы к сообщениям
Вы можете скачивать файлы