[TR24][OF] Johann Sebastian Bach - Magnificat & Christmas Cantata (Dunedin Consort, John Butt) (Deluxe edition) - 2015 (Sacred, Classical)


Статистика раздачи [Обновить пиров]
Размер:  1.76 GB   |    Зарегистрирован:  8 месяцев 13 дней   |    Скачан:  0 раз

Полного источника не было: Никогда

 
   
 
 
 

[Цитировать]

Johann Sebastian Bach - Magnificat & Christmas Cantata
Формат записи/Источник записи: [TR24][OF]
Наличие водяных знаков: Нет
Издание: Deluxe edition
Год издания/переиздания диска: 2015
Жанр: Sacred, Classical
Издатель(лейбл): Linn Records
Продолжительность: 01:27:12
Исполнитель:
Dunedin Consort,
John Butt, director,
Julia Doyle, soprano,
Joanne Lunn, soprano,
Clare Wilkinson, mezzo-soprano,
Nicholas Mulroy, tenor,
Matthew Brook, bass-baritone.
Recorded at Greyfriars Kirk, Edinburgh, UK, 27–31 July 2014.
Контейнер: FLAC (*.flac)
Тип рипа: tracks
Разрядность: 24/96
Количество каналов: 2.0
Источник: Linn Records

DR-Report

foobar2000 1.3.8 / Dynamic Range Meter 1.1.1
log date: 2015-10-31 12:45:33
--------------------------------------------------------------------------------
Analyzed: Dunedin Consort, John Butt / J.S. Bach: Magnificat & Christmas Cantata
--------------------------------------------------------------------------------
DR Peak RMS Duration Track
--------------------------------------------------------------------------------
DR9 -13.73 dB -26.01 dB 1:11 01-Organ Prelude: Vom Himmel kam, BWV 607
DR12 -2.55 dB -19.16 dB 2:52 02-Motet: Hodie Christus natus est a8
DR10 -10.90 dB -22.67 dB 1:00 03-Das Orgel-Büchlein: No. 2, Gott, durch deine Güte, BWV 600
DR11 -0.30 dB -15.61 dB 5:21 04-Christen, atzet diesen Tag, BWV 63 - I. Chorus Christen, aaatzet diesen Tag
DR13 -5.55 dB -23.98 dB 2:57 05-Christen, atzet diesen Tag, BWV 63 - II. Recit O selger Tag
DR12 -2.18 dB -20.04 dB 7:26 06-Christen, atzet diesen Tag, BWV 63 - III. Aria Gott, du hast es wohl gefuaaget
DR13 -5.33 dB -23.18 dB 0:50 07-Christen, atzet diesen Tag, BWV 63 - IV. Recit So kehret sich nun heut
DR12 -8.06 dB -22.91 dB 3:43 08-Christen, atzet diesen Tag, BWV 63 - V. Aria Ruft und fleht den Himmel an
DR14 -2.97 dB -20.22 dB 1:02 09-Christen, atzet diesen Tag, BWV 63 - VI. Recit Verdoppelt euch demnach
DR11 -0.48 dB -16.54 dB 6:54 10-Christen, atzet diesen Tag, BWV 63 - VII. Chorus Hoaachster, schau in Gnaden an
DR10 -3.53 dB -16.16 dB 0:42 11-Das Orgel-Buchlein: No. 8, Vom Himmel hoch, BWV 606
DR7 -1.72 dB -12.25 dB 2:57 12-Neu Leipziger Gesangbuch: Vom Himmel hoch
DR10 -12.28 dB -24.62 dB 1:42 13-Organ Prelude: Der Tag, der ist so freudenreich, BWV 605
DR8 -1.81 dB -13.83 dB 2:46 14-Congregational Pulpit Hymn: Ein Kindelein so loebelich
DR10 -3.81 dB -16.93 dB 3:43 15-Fuga sopra il Magnificat, BWV 733 (Meine Seele erhebet den Herren)
DR11 -0.92 dB -14.82 dB 2:56 16-Magnificat in E-Flat Major, BWV 243a - I. Magnificat
DR14 -2.21 dB -21.20 dB 2:25 17-Magnificat in E-Flat Major, BWV 243a - IIa. Et exsultavit
DR11 -3.27 dB -18.85 dB 1:30 18-Magnificat in E-Flat Major, BWV 243a - IIb. Vom Himmel hoch
DR14 -2.53 dB -21.85 dB 2:36 19-Magnificat in E-Flat Major, BWV 243a - III. Quia respexit
DR12 -1.95 dB -16.22 dB 1:21 20-Magnificat in E-Flat Major, BWV 243a - IV. Omnes generationes
DR13 -3.31 dB -20.98 dB 1:43 21-Magnificat in E-Flat Major, BWV 243a - Va. Quia fecit
DR11 -2.09 dB -17.25 dB 1:20 22-Magnificat in E-Flat Major, BWV 243a - Vb. Freut euch und jubiliert
DR13 -7.41 dB -23.77 dB 3:30 23-Magnificat in E-Flat Major, BWV 243a - VI. Et misericordia
DR9 -1.32 dB -13.37 dB 1:57 24-Magnificat in E-Flat Major, BWV 243a - VIIa. Fecit potentiam
DR11 -2.13 dB -16.59 dB 1:06 25-Magnificat in E-Flat Major, BWV 243a - VIIb. Gloria in excelsis Deo!
DR12 -5.52 dB -21.24 dB 2:01 26-Magnificat in E-Flat Major, BWV 243a - VIII. Deposuit potentes
DR14 -8.38 dB -26.85 dB 3:17 27-Magnificat in E-Flat Major, BWV 243a - IXa. Esurientes implevit bonis
DR12 -3.68 dB -21.38 dB 2:58 28-Magnificat in E-Flat Major, BWV 243a - IXb. Virga Jesse
DR12 -4.38 dB -20.98 dB 2:04 29-Magnificat in E-Flat Major, BWV 243a - X. Suscepit Israel
DR12 -2.12 dB -18.16 dB 1:25 30-Magnificat in E-Flat Major, BWV 243a - XI. Sicut locutus est
DR9 -1.35 dB -13.82 dB 2:17 31-Magnificat in E-Flat Major, BWV 243a - XII. Gloria
DR13 -2.35 dB -25.48 dB 2:56 32-Responsory, Collect, Blessing, Response to Blessing
DR10 -5.03 dB -16.23 dB 1:37 33-Das Orgel-Buchlein: Puer natus in Bethlehem, BWV 603
DR9 -1.95 dB -13.19 dB 2:43 34-Neu Leipziger Gesangbuch: Puer natus in Bethlehem
--------------------------------------------------------------------------------
Number of tracks: 34
Official DR value: DR11
Samplerate: 96000 Hz
Channels: 2
Bits per sample: 24
Bitrate: 2969 kbps
Codec: FLAC
================================================================================

Треклист

01 - Organ Prelude: Vom Himmel kam, BWV 607 01:10
02 - Motet: Hodie Christus natus est a8, Ch. C8 02:51
03 - Das Orgel-Büchlein: No. 2, Gott, durch deine Güte, BWV 600 00:59
Christen, atzet diesen Tag, BWV 63:
04 - I. Christen, atzet diesen Tag 05:21
05 - II. O selger Tag! 02:57
06 - III. Gott, du hast es wohl gefuget 07:26
07 - IV. So kehret sich nun heut 00:49
08 - V. Ruft und fleht den Himmel an 03:43
09 - VI. Verdoppelt euch demnach 01:02
10 - VII. Hochster, schau in Gnaden an 06:54
11 - Das Orgel-Buchlein: No. 8, Vom Himmel hoch, BWV 606 00:42
12 - Neu Leipziger Gesangbuch: Vom Himmel hoch 02:56
13 - Organ Prelude: Der Tag, der ist so freudenreich, BWV 605 01:41
14 - Congregational Pulpit Hymn: Ein Kindelein so loebelich 02:45
15 - Fuga sopra il Magnificat, BWV 733 (Meine Seele erhebet den Herren) 03:42
Magnificat in E-Flat Major, BWV 243a:
16 - I. Magnificat 02:55
17 - IIa. Et exsultavit 02:24
18 - IIb. Vom Himmel hoch 01:30
19 - III. Quia respexit 02:35
20 - IV. Omnes generationes 01:21
21 - Va. Quia fecit 01:43
22 - Vb. Freut euch und jubiliert 01:20
23 - VI. Et misericordia 03:30
24 - VIIa. Fecit potentiam 01:56
25 - VIIb. Gloria in excelsis Deo! 01:05
26 - VIII. Deposuit potentes 02:01
27 - IXa. Esurientes implevit bonis 03:17
28 - IXb. Virga Jesse 02:58
29 - X. Suscepit Israel 02:04
30 - XI. Sicut locutus est 01:24
31 - XII. Gloria 02:16
32 - Responsory, Collect, Blessing, Response to Blessing 02:55
33 - Das Orgel-Buchlein: Puer natus in Bethlehem, BWV 603 01:36
34 - Neu Leipziger Gesangbuch: Puer natus in Bethlehem 2:43
[teatrix.ru].t22545.torrent 
Торрент: Зарегистрирован [ 2016-03-21 00:23 ] · 858E3AF00AAD9C5EB2049F244698F04D225E2DF2

Скачать .torrent

Скачать

22 KB

Статус: проверено
Скачан: 0 раз
Размер: 1.76 GB
terms.php



Быстрый ответ

Имя:

      
Для отправки сообщений необходимо включить JavaScript
Показать сообщения:    

Текущее время: 03-Дек 14:40

Часовой пояс: UTC + 3


Вы можете начинать темы
Вы можете отвечать на сообщения
Вы не можете редактировать свои сообщения
Вы не можете удалять свои сообщения
Вы не можете голосовать в опросах
Вы не можете прикреплять файлы к сообщениям
Вы можете скачивать файлы