(Classical) Paul Hindemith - Septet, Quintet, Octet (Ensemble Villa Musica) - 1993, APE (image+.cue) lossless


 

[Цитировать]

Paul Hindemith - Septet, Quintet, Octet
Жанр: Classical
Год издания диска: 1993
Издатель (лейбл): MDG
Аудиокодек: APE
Тип рипа: image+.cue
Битрейт аудио: lossless
Продолжительность: 01:05:03
Источник: скачано с
сайт-источник/ник/другое: eMule
Наличие сканов в содержимом раздачи: нет
Треклист:
[1]-[5] Septet, for flute, oboe, clarinet, bass clarinet, bassoon, horn & trumpet
[6]-[10] Quintet, for clarinet & string quartet, Op. 30
[11]-[15] Octet, for clarinet, bassoon, horn, violin, 2 violas, cello & bass

Исполнители

Septet:
Jean-Claude Gerard - Flote
Ingo Goritzki - Oboe
Ulf Rodenhauser - Klarinette
Bernhard Nusser - Bassklarinette
Sergio Azzolini - Fagott
Radovan Vlatkovic - Horn
Matthias Hoefs - Trompete
Quintet:
Ulf Rodenhauser - Klarinette
Erno Sebestyen - Violine
Nina Martinez - Violine
Enrique Santiago - Viola
Martin Ostetag - Violoncello
Octet:
Ulf Rodenhauser - Klarinette
Marie Luise Neunecker - Horn
Klaus Thunemann - Fagott
Erno Sebestyen - Violine
Enrique Santiago - Viola I
Gunter Teuffel - Viola II
Martin Ostetag - Violoncello
Wolfgang Guttler - Kontrabass

Лог создания рипа

EAC extraction logfile from 10. January 2005, 17:04 for CD
Ensemble Villa Musica / Paul Hindemith
Used drive : PHILIPS DVDR1640P Adapter: 1 ID: 0
Read mode : Secure with NO C2, accurate stream, NO disable cache
Combined read/write offset correction : 0
Overread into Lead-In and Lead-Out : No
Used output format : Internal WAV Routines
44.100 Hz; 16 Bit; Stereo
Other options :
Fill up missing offset samples with silence : Yes
Delete leading and trailing silent blocks : No
Native Win32 interface for Win NT & 2000
Range status and errors
Selected range
Filename C:\Reger\Hindemith\Hindemith -@- Villa Musica -@- Quintett, Septett, Oktett.wav
Peak level 96.2 %
Range quality 100.0 %
CRC 8AAF3346
Copy OK
No errors occured
End of status report

Содержание индексной карты (.CUE)

PERFORMER "Ensemble Villa Musica"
TITLE "Paul Hindemith"
FILE "Hindemith -@- Villa Musica -@- Quintett, Septett, Oktett.ape" WAVE
TRACK 01 AUDIO
TITLE "Septett - I. Lebhaft"
PERFORMER "Ensemble Villa Musica"
FLAGS DCP
INDEX 00 00:00:00
INDEX 01 00:00:50
TRACK 02 AUDIO
TITLE "Septett - II. Intermezzo. Sehr langsam, frei"
PERFORMER "Ensemble Villa Musica"
FLAGS DCP
INDEX 01 04:08:07
TRACK 03 AUDIO
TITLE "Septett - III. Variationen. Massig schnell"
PERFORMER "Ensemble Villa Musica"
FLAGS DCP
INDEX 01 06:07:47
TRACK 04 AUDIO
TITLE "Septett - IV. Intermezzo. Sehr langsam"
PERFORMER "Ensemble Villa Musica"
FLAGS DCP
INDEX 01 09:53:45
TRACK 05 AUDIO
TITLE "Septett - V. Fuge. Alter Berner Marsch. Schnell"
PERFORMER "Ensemble Villa Musica"
FLAGS DCP
INDEX 01 11:50:57
TRACK 06 AUDIO
TITLE "Quintett op. 30 - I. Sehr lebhaft"
PERFORMER "Ensemble Villa Musica"
FLAGS DCP
INDEX 00 15:18:07
INDEX 01 15:23:72
TRACK 07 AUDIO
TITLE "Quintett op. 30 - II. Sehr langsame Achtel"
PERFORMER "Ensemble Villa Musica"
FLAGS DCP
INDEX 01 17:58:20
TRACK 08 AUDIO
TITLE "Quintett op. 30 - III. Deutsche Tanze. Im flotten Landlertempo"
PERFORMER "Ensemble Villa Musica"
FLAGS DCP
INDEX 01 28:37:35
TRACK 09 AUDIO
TITLE "Quintett op. 30 - IV. Arioso. Sehr langsam und mit grossen Ruhe"
PERFORMER "Ensemble Villa Musica"
FLAGS DCP
INDEX 01 34:08:00
TRACK 10 AUDIO
TITLE "Quintett op. 30 - V. Sehr lebhaft"
PERFORMER "Ensemble Villa Musica"
FLAGS DCP
INDEX 01 36:22:42
TRACK 11 AUDIO
TITLE "Oktett - I. Breit - Massig schnell"
PERFORMER "Ensemble Villa Musica"
FLAGS DCP
INDEX 00 39:01:47
INDEX 01 39:12:37
TRACK 12 AUDIO
TITLE "Oktett - II. Varianten. Massig schnell"
PERFORMER "Ensemble Villa Musica"
FLAGS DCP
INDEX 01 46:57:12
TRACK 13 AUDIO
TITLE "Oktett - III. Langsam"
PERFORMER "Ensemble Villa Musica"
FLAGS DCP
INDEX 01 49:27:27
TRACK 14 AUDIO
TITLE "Oktett - IV. Sehr lebhaft"
PERFORMER "Ensemble Villa Musica"
FLAGS DCP
INDEX 01 56:19:35
TRACK 15 AUDIO
TITLE "Oktett - V. Fuge und drei altmodische Tanze"
PERFORMER "Ensemble Villa Musica"
FLAGS DCP
INDEX 01 58:50:50



Показать сообщения:    

Текущее время: 08-Дек 12:52

Часовой пояс: UTC + 3


Вы не можете начинать темы
Вы не можете отвечать на сообщения
Вы не можете редактировать свои сообщения
Вы не можете удалять свои сообщения
Вы не можете голосовать в опросах
Вы не можете прикреплять файлы к сообщениям
Вы не можете скачивать файлы