(Choral music, Pop) Les Petits Chanteurs a la Croix de Bois - Pourquoi! - Veronique Thomassin, Mike Ofer - 2007, Single, FLAC (image+.cue) lossless


Статистика раздачи [Обновить пиров]
Размер:  103 MB   |    Зарегистрирован:  8 месяцев 21 день   |    Скачан:  0 раз

Полного источника не было: Никогда

 
   
 
 
 

[Цитировать]

Les Petits Chanteurs a la Croix de Bois - Pourquoi!
Жанр: Choral music, Pop
Страна-производитель диска: France
Год издания диска: 2007
Издатель (лейбл): DMD Company
Дата записи: 2007
Аудиокодек: FLAC
Тип рипа: image+.cue
Битрейт аудио: lossless
Продолжительность: 00:12:17
Источник: собственный рип
Наличие сканов в содержимом раздачи: да
Треклист:
01. Pourquoi! Version chantee (4:07)
02. Pourquoi! Version Play Back avec chorale (4:06)
03. Pourquoi! Version Play Back sans chorale (4:05)
Исполнители:
Les Petits Chanteurs a la Croix de Bois (The Little Singers of Paris \ Little Singers of the Wooden Cross)
Direction: Veronique Thomassin
Composer: Mike Ofer

Лог создания рипа

Exact Audio Copy V1.0 beta 3 from 29. August 2011
Отчёт EAC об извлечении, выполненном 4. ноября 2015, 15:00
Les Petits Chanteurs a la Croix de Bois / Pourquoi!
Дисковод: ASUS DRW-1814BL Adapter: 3 ID: 5
Режим чтения : Достоверность
Использование точного потока : Да
Отключение кэша аудио : Да
Использование указателей C2 : Нет
Коррекция смещения при чтении : 6
Способность читать области Lead-in и Lead-out : Нет
Заполнение пропущенных сэмплов тишиной : Да
Удаление блоков с тишиной в начале и конце : Нет
При вычислениях CRC использовались нулевые сэмплы : Да
Интерфейс : Встроенный Win32-интерфейс для Win NT/2000
Выходной формат : Пользовательский кодировщик
Выбранный битрейт : 128 kBit/s
Качество : Высокий
Добавление ID3-тега : Нет
Утилита сжатия : C:\Program Files\Exact Audio Copy\Flac\flac.exe
Дополнительные параметры : -V -8 -T "Date=%year%" -T "Genre=%genre%" %source%
TOC извлечённого CD
Трек | Старт | Длительность | Начальный сектор | Конечный сектор
---------------------------------------------------------------------
1 | 0:00.00 | 4:06.52 | 0 | 18501
2 | 4:06.52 | 4:05.64 | 18502 | 36940
3 | 8:12.41 | 4:04.59 | 36941 | 55299
Характеристики диапазона извлечения и сообщения об ошибках
Выбранный диапазон
Имя файла C:\Documents and Settings\biotox\Рабочий стол\Новая папка (2)\Les Petits Chanteurs a la Croix de Bois - Pourquoi!.wav
Пиковый уровень 100.0 %
Скорость извлечения 5.9 X
Качество диапазона 100.0 %
CRC теста 5E9D2EEB
CRC копии 5E9D2EEB
Копирование... OK
Ошибок не произошло
AccurateRip: сводка
Трек 1 отсутствует в базе данных
Трек 2 отсутствует в базе данных
Трек 3 отсутствует в базе данных
Ни одного трека нет в базе AccurateRip
Конец отчёта
==== Контрольная сумма отчёта 7CF305461D51689A7917CB5412E9AB2713A5D4D29D27C90548D8B11872A66409 ====

Замер динамического диапазона

foobar2000 1.2.9 / Замер динамического диапазона (DR) 1.1.1
Дата отчёта: 2015-11-05 12:09:41
--------------------------------------------------------------------------------
Анализ: Les Petits Chanteurs a la Croix de Bois / Pourquoi!
--------------------------------------------------------------------------------
DR Пики RMS Продолжительность трека
--------------------------------------------------------------------------------
DR7 0.00 дБ -9.14 дБ 4:07 01-Pourquoi! Version chantee
DR7 0.00 дБ -8.59 дБ 4:06 02-Pourquoi! Version Play Back avec chorale
DR7 0.00 дБ -9.13 дБ 4:05 03-Pourquoi! Version Play Back sans chorale
--------------------------------------------------------------------------------
Количество треков: 3
Реальные значения DR: DR7
Частота: 44100 Гц
Каналов: 2
Разрядность: 16
Битрейт: 961 кбит/с
Кодек: FLAC
================================================================================
[teatrix.ru].t22548.torrent 
Торрент: Зарегистрирован [ 2016-03-21 00:23 ] · F88AB086D42DD58DDA37D7228A49339F9CBB20DE

Скачать .torrent

Скачать

17 KB

Статус: проверено
Скачан: 0 раз
Размер: 103 MB
terms.php



Быстрый ответ

Имя:

      
Для отправки сообщений необходимо включить JavaScript
Показать сообщения:    

Текущее время: 11-Дек 11:06

Часовой пояс: UTC + 3


Вы можете начинать темы
Вы можете отвечать на сообщения
Вы не можете редактировать свои сообщения
Вы не можете удалять свои сообщения
Вы не можете голосовать в опросах
Вы не можете прикреплять файлы к сообщениям
Вы можете скачивать файлы