Убийца / Nie yin niang (Хоу Сяосянь / Hou Hsiao-hsien) [2015, Тайвань, Китай, Гонконг, Франция, боевик, драма, HDRip] DVO + Sub Rus + original


 

[Цитировать]

Убийца / Nie yin niang / The Assassin
Страна: Тайвань, Китай, Гонконг, Франция
Жанр: боевик, драма
Год выпуска: 2015
Продолжительность: 01:45:26
Перевод: Любительский (двухголосый, закадровый) - Ворон и Wenlana
Cубтитры: русские (Skuf)
Оригинальная аудиодорожка: китайский

Режиссер: Хоу Сяосянь / Hou Hsiao-hsien
В ролях: Шу Ци, Чан Чэнь, Сатоси Цумабуки, Шао-Хуань Чанг, Никки Ши, Этан Жуань, Фэнг Мей, Дахун Ни, Фанг-Ю Шей, Ших Чун
Описание: Древний Китай. Правление династии Тан. Главная героиня - одна из лучших наемных убийц тех времен. Она не знает жалости и пощады. Но однажды она влюбляется в молодого человека, которого ей приказали убить...
Качество видео: HDRip [K1LLer.2015.DVO.BDRip.720p]
Формат видео: AVI
Видео: 656x464 (1.41:1), 24 fps, XviD build 73 ~1521 kbps avg, 0.21 bit/pixel
Аудио:48 kHz, AC3 Dolby Digital, 3/2 (L,C,R,l,r) + LFE ch, ~448 kbps - двухголосый
Аудио:48 kHz, AC3 Dolby Digital, 3/2 (L,C,R,l,r) + LFE ch, ~448 kbps - оригинал (отдельным файлом)

MediaInfo

Общее
Полное имя : H:\Nie.yin.niang.2015.hdrip_[1.46]_[teko]\Nie.yin.niang.2015.hdrip_[1.46].avi
Формат : AVI
Формат/Информация : Audio Video Interleave
Размер файла : 1,46 Гбайт
Продолжительность : 1 ч. 45 м.
Общий поток : 1979 Кбит/сек
Программа кодирования : VirtualDubMod 1.5.10.3 | www.virtualdub-fr.org || (build 2550/release)
Библиотека кодирования : VirtualDubMod build 2550/release
Видео
Идентификатор : 0
Формат : MPEG-4 Visual
Профиль формата : Advanced Simple@L5
Параметр BVOP формата : 1
Параметр QPel формата : Нет
Параметр GMC формата : Без точки перехода
Параметр матрицы формата : Выборочная
Идентификатор кодека : XVID
Идентификатор кодека/Подсказка : XviD
Продолжительность : 1 ч. 45 м.
Битрейт : 1522 Кбит/сек
Ширина : 656 пикселей
Высота : 464 пикселя
Соотношение сторон : 1,414
Частота кадров : 24,000 кадра/сек
Цветовое пространство : YUV
Субдискретизация насыщенности : 4:2:0
Битовая глубина : 8 бит
Тип развёртки : Прогрессивная
Метод сжатия : С потерями
Бит/(Пиксели*Кадры) : 0.208
Размер потока : 1,12 Гбайт (77%)
Библиотека кодирования : XviD 73
Аудио
Идентификатор : 1
Формат : AC-3
Формат/Информация : Audio Coding 3
Расширение режима : CM (complete main)
Параметр Endianness формата : Big
Идентификатор кодека : 2000
Продолжительность : 1 ч. 45 м.
Вид битрейта : Постоянный
Битрейт : 448 Кбит/сек
Каналы : 6 каналов
Расположение каналов : Front: L C R, Side: L R, LFE
Частота : 48,0 КГц
Битовая глубина : 16 бит
Метод сжатия : С потерями
Размер потока : 338 Мбайт (23%)
Выравнивание : Разделение по промежуткам
Продолжительность промежутка : 42 мс. (1,00 видеокадр)
Время предзагрузки промежутка : 500 мс.
-Внимание! 16.12.2015 торрент перезалит. Улучшено качество видео web-dlrip--> hdrip. Без хардсаба. Добавлена озвучка. Оригинал заменен на 5.1



Показать сообщения:    

Текущее время: 09-Дек 06:59

Часовой пояс: UTC + 3


Вы не можете начинать темы
Вы не можете отвечать на сообщения
Вы не можете редактировать свои сообщения
Вы не можете удалять свои сообщения
Вы не можете голосовать в опросах
Вы не можете прикреплять файлы к сообщениям
Вы не можете скачивать файлы