Известен под именем Сид / Con nombre propio: Ego Ruderico (Педро Сильва / Pedro Silva) [2007, документальный, биографический, DVB] DVO (SDI Media)


Статистика раздачи [Обновить пиров]
Размер:  982 MB   |    Зарегистрирован:  8 месяцев 17 дней   |    Скачан:  0 раз

Полного источника не было: Никогда

 
   
 
 
 

[Цитировать]

Известен под именем Сид
Con nombre propio: Ego Ruderico- Дата/Год выпуска: 2007
Страна: Испания
Жанр: документальный, биографический
Продолжительность: 00:48:49
Перевод: Профессиональный (двухголосый закадровый)
Доп. инфо о переводе: SDI Media по заказу ТПО "Ред Медиа"
Русские субтитры: нет
Режиссер: Педро Сильва / Pedro Silva
Телеканал: 365 днейОписание: Сид Кампеадо́р, более известный как Эль Сид Кампеадо́р (исп. El Cid Campeador), настоящее имя Родри́го Ди́ас де Вива́р (исп. Rodrigo Díaz de Vivar, Руи Ди́ас); род. 1041—1057, Вивар, Бургос — 10 июля 1099, Валенсия — кастильский дворянин, военный и политический деятель, национальный герой Испании, герой испанских народных преданий, поэм, романсов и драм, а также знаменитой трагедии Корнеля.
Тисона, или Тизона (исп. Tizona) — легендарный меч Эль Сида, национальное сокровище Испании, знаменитое по "Поэме о моем Сиде". Отнят им у мавританского короля Букара после их поединка, в котором храбрый Родриго победил Букара. Меч, считающийся Тизоной, ныне экспонируется в Музее Бургоса. Его второй меч — Колада (исп. la colada) — менее знаменитый клинок. Добыт Сидом у графа Беренгера Рамона Братоубийцы.
Доп. информация: DVB-S

качество: DVB
формат: MKV
Видео: MPEG Video 2, 720x576@768x576 (4:3), 25 fps, ~2563 kbps avg, 0.247 bit/pixel
Аудио: MPEG Audio 2, 2 ch, 48 kHz, 192.00 kbps

Список выпусков/серий

Глава 1: Сид Кампеадор: Жизнь и легенда / El Cid Campeador: vida e legenda
Глава 2: Путь Сида / Camino del Cid

MediaInfo

Общее
Уникальный идентификатор : 230443074134696282856279974355554903674 (0xAD5DB8C1055CD6D397257E3403B1A67A)
Полное имя : F:\My Torrents 3\[apreder]Con_nombre_propio_El_Cid(2007)DVB.mkv
Формат : Matroska
Версия формата : Version 2
Размер файла : 982 Мбайт
Продолжительность : 48 м.
Режим общего битрейта : Переменный
Общий поток : 2810 Кбит/сек
Дата кодирования : UTC 2015-11-07 09:53:23
Программа кодирования : mkvmerge v8.5.2 ('Crosses') 64bit
Библиотека кодирования : libebml v1.3.3 + libmatroska v1.4.4
Attachements : cover.jpg / cover_small.jpg
TITLE : Con nombre propio: El Cid
DATE_RELEASED : 2007-00-00
LAW_RATING : 12+
GENRE : Documentary
DIRECTOR : Pedro Silva
KEYWORDS : rutracker.org
Видео
Идентификатор : 1
Формат : MPEG Video
Версия формата : Version 2
Профиль формата : Main@Main
Параметр BVOP формата : Да
Параметр матрицы формата : Выборочная
Параметр GOP формата : M=3, N=36
Format_Settings_PictureStructure : Frame
Идентификатор кодека : V_MPEG2
Идентификатор кодека/Информация : MPEG 1 or 2 Video
Продолжительность : 48 м.
Вид битрейта : Переменный
Битрейт : 2563 Кбит/сек
Ширина : 720 пикселей
Высота : 576 пикселей
Соотношение сторон : 4:3
Режим частоты кадров : Постоянный
Частота кадров : 25,000 кадров/сек
Стандарт вещания : PAL
Цветовое пространство : YUV
Субдискретизация насыщенности : 4:2:0
Битовая глубина : 8 бит
Тип развёртки : Чересстрочная
Порядок развёртки : Верхнее поле первое
Метод сжатия : С потерями
Бит/(Пиксели*Кадры) : 0.247
Временной код первого кадра : 00:00:00:00
Оригинал временного кода : Group of pictures header
Размер потока : 895 Мбайт (91%)
Default : Да
Forced : Нет
Аудио
Идентификатор : 2
Формат : MPEG Audio
Версия формата : Version 1
Профиль формата : Layer 2
Идентификатор кодека : A_MPEG/L2
Идентификатор кодека/Подсказка : MP2
Продолжительность : 48 м.
Вид битрейта : Постоянный
Битрейт : 192 Кбит/сек
Каналы : 2 канала
Частота : 48,0 КГц
Метод сжатия : С потерями
Размер потока : 67,1 Мбайт (7%)
Язык : Russian
Default : Да
Forced : Нет

Скриншоты


Резервные скриншоты


-
[teatrix.ru].t22552.torrent 
Торрент: Зарегистрирован [ 2016-03-21 00:23 ] · 5397EC8636291CF5DEC3DFDD128C0E13CF2C8498

Скачать .torrent

Скачать

20 KB

Статус: проверено
Скачан: 0 раз
Размер: 982 MB
terms.php



Быстрый ответ

Имя:

      
Для отправки сообщений необходимо включить JavaScript
Показать сообщения:    

Текущее время: 07-Дек 11:32

Часовой пояс: UTC + 3


Вы можете начинать темы
Вы можете отвечать на сообщения
Вы не можете редактировать свои сообщения
Вы не можете удалять свои сообщения
Вы не можете голосовать в опросах
Вы не можете прикреплять файлы к сообщениям
Вы можете скачивать файлы