Екатерина Великая. Женская доля. (Анна Филимонова) [2015, Документальный фильм, DVB]


Статистика раздачи [Обновить пиров]
Размер:  1.09 GB   |    Зарегистрирован:  8 месяцев 15 дней   |    Скачан:  0 раз

Полного источника не было: Никогда

 
   
 
 
 

[Цитировать]

Екатерина Великая. Женская доля.
Дата/Год выпуска: 2015
Страна: Россия
Жанр: Документальный фильм
Продолжительность: 00:51:18
Перевод: Не требуется
Русские субтитры: нет
Оригинальная аудиодорожка: русский
Режиссер: Анна Филимонова
Телеканал: 1 канал
Описание: Эта женщина изменила ход российской и мировой истории. Немецкая принцесса София Августа Фредерика Ангальт-Цербстская из обнищавшего рода стала великой русской императрицей.
Двадцать лет вокруг будущей государыни кипели нешуточные страсти: подозрение в шпионаже, измены, предательства, угроза ссылки в монастырь, и, наконец, – восшествие на престол под именем Екатерина Вторая. Она купалась в страсти мужчин, как властительница душ, и страдала от неразделенной любви, как обычная женщина. Ее возлюбленными стали великие государственные деятели. Но ей так не удалось стать хорошей женой и матерью. Была ли императрица по-настоящему счастлива?
Виновата ли она в смерти мужа – императора Петра Третьего? Кто помогал ей совершить переворот и стать государыней? Как недругов она превращала в друзей и соратников? – Екатерина Вторая навеки вписала свое имя в историю как самая прогрессивная и мудрая царица.
Возможно, она обманула весь мир и заставила современников и потомков верить в ту историю, которую написала сама.
Императрица назвала имена своих возлюбленных в мемуарах – однако многие историки полагают, что она скрыла некоторые романы по политическим соображениям. Ее имя окружено мифами. Отношения с мужем – Петром Третьим до сих пор остаются загадкой. Какие чувства Екатерина испытывала к своему супругу? Была ли она несчастной отвергнутой женой, или это Петр страдал от неразделенной любви к ней? Кто был настоящим отцом ее сына – императора Павла? И справедливо ли называют эпоху Екатерины - "Золотым веком"?
Мы исследуем дворцовые интриги, заговоры, и конечно, личные драмы Екатерины Великой.
Сэмпл: http://sendfile.su/1171881
качество: DVB
формат: TS
Видео: AVC/H.264, 720х576, 16:9, 2707 Кбит/сек, 25,000 fps
Аудио: Mp-2, 48,0 КГц, 192 Кбит/сек, 2 ch

MediaInfo

Общее
Идентификатор : 1 (0x1)
Полное имя : D:\Екатерина Великая. Женская доля. (DVB).ts
Формат : MPEG-TS
Размер файла : 1,09 Гбайт
Продолжительность : 51 м.
Режим общего битрейта : Переменный
Общий поток : 3052 Кбит/сек
Видео
Идентификатор : 1011 (0x3F3)
Идентификатор меню : 1 (0x1)
Формат : AVC
Формат/Информация : Advanced Video Codec
Профиль формата : Main@L3.0
Параметр CABAC формата : Да
Параметр ReFrames формата : 3 кадра
Параметр GOP формата : M=4, N=28
Идентификатор кодека : 27
Продолжительность : 51 м.
Битрейт : 2707 Кбит/сек
Ширина : 720 пикселей
Высота : 576 пикселей
Соотношение сторон : 16:9
Частота кадров : 25,000 кадров/сек
Стандарт вещания : Component
Цветовое пространство : YUV
Субдискретизация насыщенности : 4:2:0
Битовая глубина : 8 бит
Тип развёртки : Чересстрочная
Порядок развёртки : Верхнее поле первое
Бит/(Пиксели*Кадры) : 0.261
Размер потока : 993 Мбайт (89%)
Основные цвета : BT.601 PAL
Характеристики трансфера : BT.470 System B, BT.470 System G
Коэффициенты матрицы : BT.601
colour_range : Limited
Аудио
Идентификатор : 1012 (0x3F4)
Идентификатор меню : 1 (0x1)
Формат : MPEG Audio
Версия формата : Version 1
Профиль формата : Layer 2
Идентификатор кодека : 3
Продолжительность : 51 м.
Вид битрейта : Постоянный
Битрейт : 192 Кбит/сек
Каналы : 2 канала
Частота : 48,0 КГц
Метод сжатия : С потерями
Размер потока : 70,4 Мбайт (6%)

Скриншоты

[teatrix.ru].t22554.torrent 
Торрент: Зарегистрирован [ 2016-03-21 00:26 ] · 2EA56267E775B65B70410B37EC5073B746ACADA4

Скачать .torrent

Скачать

11 KB

Статус: проверено
Скачан: 0 раз
Размер: 1.09 GB
terms.php



Быстрый ответ

Имя:

      
Для отправки сообщений необходимо включить JavaScript
Показать сообщения:    

Текущее время: 05-Дек 11:33

Часовой пояс: UTC + 3


Вы можете начинать темы
Вы можете отвечать на сообщения
Вы не можете редактировать свои сообщения
Вы не можете удалять свои сообщения
Вы не можете голосовать в опросах
Вы не можете прикреплять файлы к сообщениям
Вы можете скачивать файлы