Гинденбург и Гитлер / Hindenburg & Hitler / Hindenburg - Der Mann, der Hitler zum Kanzler machte verhalf (Кристоф Вайнерт / Christoph Weinert) [2013, документальный, биографический, DVB] DVO (SDI Media)


Статистика раздачи [Обновить пиров]
Размер:  1.43 GB   |    Зарегистрирован:  8 месяцев 16 дней   |    Скачан:  0 раз

Полного источника не было: Никогда

 
   
 
 
 

[Цитировать]

Гинденбург и Гитлер
Hindenburg & Hitler- Дата/Год выпуска: 2013
Страна: Германия
Жанр: документальный, биографический
Продолжительность: 00:51:36
Перевод: Профессиональный (двухголосый закадровый)
Доп. инфо о переводе: Компания SDI Media по заказу ТПО "Ред Медиа"
Русские субтитры: нет
Режиссер: Кристоф Вайнерт / Christoph Weinert
Телеканал: 365 днейОписание: До появления Гитлера самым харизматичным политическим лидером Германии был Пауль фон Гинденбург (1847-1934). Он был самым успешным немецким генералом Первой мировой войны, благодаря чему стал героем в глазах народа. После войны его дважды избирали рейсхпрезидентом. Единственный в истории Германии человек, избранный главой государства на всенародных выборах. Занимал пост до конца жизни. Его соперником был политический выскочка Адольф Гитлер. Гинденбург презирал его. Но всего через несколько лет он своими руками приведет Гитлера к власти. Почему же? (из предисловия к фильму)
Доп. информация: DVB-S

качество: DVB
формат: MKV
Видео: MPEG Video 2, 720x576@768x576 (4:3), 25 fps, ~3707 kbps avg, 0.358 bit/pixel
Аудио: MPEG Audio 2, 2 ch, 48 kHz, 192.00 kbps

MediaInfo

Общее
Уникальный идентификатор : 235495531900396342117927549154607854013 (0xB12ACA2786F6EA6F95BC561B069171BD)
Полное имя : F:\My Torrents 3\[apreder]Hindenburg_&_Hitler(2013)DVB.mkv
Формат : Matroska
Версия формата : Version 2
Размер файла : 1,43 Гбайт
Продолжительность : 51 м.
Режим общего битрейта : Переменный
Общий поток : 3978 Кбит/сек
Дата кодирования : UTC 2015-11-07 13:05:14
Программа кодирования : mkvmerge v8.5.2 ('Crosses') 64bit
Библиотека кодирования : libebml v1.3.3 + libmatroska v1.4.4
Attachements : cover.jpg / cover_small.jpg
TITLE : Hindenburg - Der Mann, der Hitler zum Kanzler machte
IMDB : tt2582358
DATE_RELEASED : 2013-01-08
LAW_RATING : 12+
GENRE : Documentary
DIRECTOR : Christoph Weinert
KEYWORDS : rutracker.org
Видео
Идентификатор : 1
Формат : MPEG Video
Версия формата : Version 2
Профиль формата : Main@Main
Параметр BVOP формата : Да
Параметр матрицы формата : Выборочная
Параметр GOP формата : Variable
Format_Settings_PictureStructure : Frame
Идентификатор кодека : V_MPEG2
Идентификатор кодека/Информация : MPEG 1 or 2 Video
Продолжительность : 51 м.
Вид битрейта : Переменный
Битрейт : 3707 Кбит/сек
Ширина : 720 пикселей
Высота : 576 пикселей
Соотношение сторон : 4:3
Режим частоты кадров : Постоянный
Частота кадров : 25,000 кадров/сек
Стандарт вещания : PAL
Цветовое пространство : YUV
Субдискретизация насыщенности : 4:2:0
Битовая глубина : 8 бит
Тип развёртки : Чересстрочная
Порядок развёртки : Верхнее поле первое
Метод сжатия : С потерями
Бит/(Пиксели*Кадры) : 0.358
Временной код первого кадра : 00:00:00:00
Оригинал временного кода : Group of pictures header
Размер потока : 1,34 Гбайт (93%)
Default : Да
Forced : Нет
Аудио
Идентификатор : 2
Формат : MPEG Audio
Версия формата : Version 1
Профиль формата : Layer 2
Идентификатор кодека : A_MPEG/L2
Идентификатор кодека/Подсказка : MP2
Продолжительность : 51 м.
Вид битрейта : Постоянный
Битрейт : 192 Кбит/сек
Каналы : 2 канала
Частота : 48,0 КГц
Метод сжатия : С потерями
Размер потока : 70,9 Мбайт (5%)
Язык : Russian
Default : Да
Forced : Нет

Скриншоты


Резервные скриншоты


[teatrix.ru].t22555.torrent 
Торрент: Зарегистрирован [ 2016-03-21 00:26 ] · A3E64D035F2C83B8074D13DD88F14790F979A0B3

Скачать .torrent

Скачать

15 KB

Статус: проверено
Скачан: 0 раз
Размер: 1.43 GB
terms.php



Быстрый ответ

Имя:

      
Для отправки сообщений необходимо включить JavaScript
Показать сообщения:    

Текущее время: 06-Дек 19:04

Часовой пояс: UTC + 3


Вы можете начинать темы
Вы можете отвечать на сообщения
Вы не можете редактировать свои сообщения
Вы не можете удалять свои сообщения
Вы не можете голосовать в опросах
Вы не можете прикреплять файлы к сообщениям
Вы можете скачивать файлы