Жюль Верн. Путешествие длиною в жизнь / Jules Verne. A Life Long Journey (Миша Костров / Misha Kostrov) [2013, документально-игровой, биографический, DVB]


Статистика раздачи [Обновить пиров]
Размер:  939 MB   |    Зарегистрирован:  8 месяцев 13 дней   |    Скачан:  0 раз

Полного источника не было: Никогда

 
   
 
 
 

[Цитировать]

Жюль Верн
Путешествие длиною в жизнь- Дата/Год выпуска: 2013
Страна: Украина
Жанр: документально-игровой, биографический
Продолжительность: 00:51:07
Перевод: Не требуется
Русские субтитры: нет
Режиссер: Миша Костров / Misha Kostrov
Телеканал: Время: далекое и близкоеВ ролях: Роман Скобников (Жюль Верн), Святослав Фехтел (доктор), Галина Янишевская (Онорина), Димитрий Маевский (маленький Жюль Верн), Сергей Хоменко (отец Жюля Верна), Александр Пилипчук (Гастон), Константин Костюк (сокурсник), Валерий Величко (Александр Дюма мл.), Олег Шушпанников (Александр Дюма), Николай Жила (Этцель)
Описание: "Неутомимый путешественник" - так Жюль Верна называли современники. Человек с безграничной фантазией и неудержимой жаждой жизни - он подарил нам инструкцию по мечтанию. И действительно, кто же из нас не хотел обогнуть земной шар вместе с Филеасом Фоггом и Жаном Паспарту? Кто не мечтал очутиться на "Наутилусе" с Капитаном Немо? Этот фильм - не что иное, как небольшой экскурс в детство. С детства Жюль Верн мечтал о далеких неизведанных странах, представляя, насколько тамошняя жизнь, отличается от того, что окружало его в Европе. Обучение на юридическом факультете в Сорбонне тяготило его, и вместо законов и кодексов юный фантазер изучал карту звездного неба, мечтая о путешествии на Луну.
Доп. информация: DVB-S
Награды: приз "Платиновый Реми" WorldFest Houston 2013; премия "Серебряный дельфин" Cannes Corporate Media & TV Awards 2013; номинация на лучший телефильм Festival de Cinema de Avanca 2013.

качество: DVB
формат: MKV
Видео: MPEG Video 2, 720x576@768x576 (4:3), 25 fps, ~2325 kbps avg, 0.224 bit/pixel
Аудио: MPEG Audio 2, 2 ch, 48 kHz, 192.00 kbps

MediaInfo

Общее
Уникальный идентификатор : 246741019351040357079762127231092948095 (0xB9A0977E1630048399603365DFEE7C7F)
Полное имя : F:\My Torrents 3\[apreder]Jules_Verne_A_Life_Long_Journey(2013)DVB.mkv
Формат : Matroska
Версия формата : Version 2
Размер файла : 939 Мбайт
Продолжительность : 51 м.
Режим общего битрейта : Переменный
Общий поток : 2569 Кбит/сек
Дата кодирования : UTC 2015-11-07 13:44:11
Программа кодирования : mkvmerge v8.5.2 ('Crosses') 64bit
Библиотека кодирования : libebml v1.3.3 + libmatroska v1.4.4
Attachements : cover.jpg / cover_small.jpg
TITLE : Jules Verne. A Life Long Journey
IMDB : tt2973698
DATE_RELEASED : 2013-04-09
LAW_RATING : 12+
GENRE : Documentary, Biography
ACTOR : Roman Skorbnikov
DIRECTOR : Misha Kostrov
KEYWORDS : rutracker.org
Видео
Идентификатор : 1
Формат : MPEG Video
Версия формата : Version 2
Профиль формата : Main@Main
Параметр BVOP формата : Да
Параметр матрицы формата : Выборочная
Параметр GOP формата : Variable
Format_Settings_PictureStructure : Frame
Идентификатор кодека : V_MPEG2
Идентификатор кодека/Информация : MPEG 1 or 2 Video
Продолжительность : 51 м.
Вид битрейта : Переменный
Битрейт : 2325 Кбит/сек
Ширина : 720 пикселей
Высота : 576 пикселей
Соотношение сторон : 4:3
Режим частоты кадров : Постоянный
Частота кадров : 25,000 кадров/сек
Стандарт вещания : PAL
Цветовое пространство : YUV
Субдискретизация насыщенности : 4:2:0
Битовая глубина : 8 бит
Тип развёртки : Чересстрочная
Порядок развёртки : Верхнее поле первое
Метод сжатия : С потерями
Бит/(Пиксели*Кадры) : 0.224
Временной код первого кадра : 00:00:00:00
Оригинал временного кода : Group of pictures header
Размер потока : 850 Мбайт (91%)
Default : Да
Forced : Нет
Аудио
Идентификатор : 2
Формат : MPEG Audio
Версия формата : Version 1
Профиль формата : Layer 2
Идентификатор кодека : A_MPEG/L2
Идентификатор кодека/Подсказка : MP2
Продолжительность : 51 м.
Вид битрейта : Постоянный
Битрейт : 192 Кбит/сек
Каналы : 2 канала
Частота : 48,0 КГц
Метод сжатия : С потерями
Размер потока : 70,2 Мбайт (7%)
Язык : Russian
Default : Да
Forced : Нет

Скриншоты


Резервные скриншоты


-
[teatrix.ru].t22557.torrent 
Торрент: Зарегистрирован [ 2016-03-21 00:26 ] · 84B3C4DBCD2EFDAA214C074E3D756BA9873AEC1C

Скачать .torrent

Скачать

19 KB

Статус: проверено
Скачан: 0 раз
Размер: 939 MB
terms.php



Быстрый ответ

Имя:

      
Для отправки сообщений необходимо включить JavaScript
Показать сообщения:    

Текущее время: 03-Дек 12:40

Часовой пояс: UTC + 3


Вы можете начинать темы
Вы можете отвечать на сообщения
Вы не можете редактировать свои сообщения
Вы не можете удалять свои сообщения
Вы не можете голосовать в опросах
Вы не можете прикреплять файлы к сообщениям
Вы можете скачивать файлы