Олег Меньшиков - Острова (Дмитрий Бушный) - 55 Юбилей [2015, Документальный, DVB]


Статистика раздачи [Обновить пиров]
Размер:  768 MB   |    Зарегистрирован:  8 месяцев 15 дней   |    Скачан:  0 раз

Полного источника не было: Никогда

 
   
 
 
 

[Цитировать]

Олег Меньшиков - Острова
Дата/Год выпуска: 2015
Страна: Россия
Жанр: Документальный
Продолжительность: 00:39:34
Перевод: Не требуется
Режиссер: Дмитрий Бушный
Телеканал: Россия К
Описание: «Острова» - телевизионный документальный цикл, который с января 2000 года ежемесячно, а с сентября того же года дважды в месяц выходит на телеканале «Культура».
Елена Саканян, Алексей Погребной, Майя Меркель, Александр Жуковский, Марина Разбежкина, Семен Райтбурт - имена героев первых выпусков «Островов» были малоизвестны за пределами профессионального кинематографического круга.
По первоначальному замыслу каждый новый выпуск должен был стать для зрителя открытием нового «острова», обладающего своей суверенной территорией в искусстве и, как правило, обойденного всеобщим вниманием или непонятого.
Известность, когда она освещает образы людей уже ушедших от нас, нередко бывает всего лишь формой забвения. Второстепенные биографические факты, лежащие на поверхности житейские мотивы нередко заслоняют глубинную и всегда неповторимую взаимосвязь творческого дара и судьбы выдающегося художника. «Острова» устроены иначе.
Эти фильмы задают вопросы, но не ищут простых ответов, не просвещают и не пытаются объяснить необъяснимое. Их цель не исследование прошлого, а живое присутствие в нем. Отсюда - отказ от всякого авторского комментария. Говорят документы и книги, кадры из фильмов и сами герои - персонажи истории, которые в определенном смысле «рассказывают сами себя».
Его не любит критика и обожают зрители. Друзья называют человеком-праздником. Он - один из самых закрытых и загадочных актеров.
Нам удалось, пусть ненадолго, проникнуть в его мир. Сегодня главное для Меньшикова - театр, который он возглавляет, и люди, которые с ним работают. Олег Меньшиков рассказывает о своей работе в Лондоне в начале 1990-х, о режиссерском дебюте в легендарном спектакле "Нижинский", о любимой роли в картине "Легенда №17".
В фильме принимают участие его друзья и коллеги: актер Владимир Андреев, художник Павел Каплевич, актриса Ванесса Редгрейв и другие.
качество: DVB
формат: TS
Видео кодек: MPEG2
Аудио кодек: MP2
Видео: MPEG2 Video 720x576 (4:3) 25.00fps 2384 Кбит/сек
Аудио: MPEG Audio 48000Hz 2 канала 192kbps

MediaInfo

Общее
Идентификатор : 1 (0x1)
Полное имя : E:\Олег Меньшиков - Острова_bySat.ts
Формат : MPEG-TS
Размер файла : 768 Мбайт
Продолжительность : 39 м.
Режим общего битрейта : Переменный
Общий поток : 2712 Кбит/сек
Видео
Идентификатор : 324 (0x144)
Идентификатор меню : 1 (0x1)
Формат : MPEG Video
Версия формата : Version 2
Профиль формата : Main@Main
Параметр BVOP формата : Да
Параметр матрицы формата : Выборочная
Параметр GOP формата : Variable
Format_Settings_PictureStructure : Frame
Идентификатор кодека : 2
Продолжительность : 39 м.
Вид битрейта : Переменный
Битрейт : 2384 Кбит/сек
Максимальный битрейт : 15,0 Мбит/сек
Ширина : 720 пикселей
Высота : 576 пикселей
Соотношение сторон : 4:3
Частота кадров : 25,000 кадров/сек
Стандарт вещания : PAL
Цветовое пространство : YUV
Субдискретизация насыщенности : 4:2:0
Битовая глубина : 8 бит
Тип развёртки : Чересстрочная
Порядок развёртки : Верхнее поле первое
Метод сжатия : С потерями
Бит/(Пиксели*Кадры) : 0.230
Временной код первого кадра : 00:00:00:00
Оригинал временного кода : Group of pictures header
Размер потока : 675 Мбайт (88%)
Gop_OpenClosed_FirstFrame : Closed
Аудио
Идентификатор : 408 (0x198)
Идентификатор меню : 1 (0x1)
Формат : MPEG Audio
Версия формата : Version 1
Профиль формата : Layer 2
Идентификатор кодека : 3
Продолжительность : 39 м.
Вид битрейта : Постоянный
Битрейт : 192 Кбит/сек
Каналы : 2 канала
Частота : 48,0 КГц
Метод сжатия : С потерями
Размер потока : 54,4 Мбайт (7%)
Язык : Russian

Скриншоты

Специально и при поддержке Gigant micli
[teatrix.ru].t22558.torrent 
Торрент: Зарегистрирован [ 2016-03-21 00:26 ] · 683CD99BAC4E32AB5412A0F1C707ACEDBF4640F9

Скачать .torrent

Скачать

15 KB

Статус: проверено
Скачан: 0 раз
Размер: 768 MB
terms.php



Быстрый ответ

Имя:

      
Для отправки сообщений необходимо включить JavaScript
Показать сообщения:    

Текущее время: 05-Дек 23:38

Часовой пояс: UTC + 3


Вы можете начинать темы
Вы можете отвечать на сообщения
Вы не можете редактировать свои сообщения
Вы не можете удалять свои сообщения
Вы не можете голосовать в опросах
Вы не можете прикреплять файлы к сообщениям
Вы можете скачивать файлы