(Opera, Vocal) Giuseppe di Stefano - Operatic Recital (Tenor Arias by Verdi, Puccini, Giordano, Cilea, Meyerbeer, Boito, Ponchielli), 1962 - Studio recording, Bruno Bartoletti / 2006, FLAC (tracks+.cue), lossless


 

[Цитировать]

Giuseppe di Stefano - Operatic Recital
Жанр: Opera, Vocal
Страна-производитель диска: CША
Год издания диска: 2006
Издатель (лейбл): Deutsche Grammophon
Дата записи: 1958
Аудиокодек: FLAC
Тип рипа: tracks+.cue
Битрейт аудио: lossless
Продолжительность: 45:34
Источник: релизер (EL HUMILDE CAMPESINO) (afina tus oidos)
Исполнители:
Giuseppe di Stefano, tenor.
Bruno Bartoletti, Conductor,
Orchestra del Maggio Musicale Fiorentino.
Recorded at Teatro Comunale, Florence, Italy, March 1962.

Лог создания рипа

Exact Audio Copy V1.0 beta 3 from 29. August 2011
EAC extraction logfile from 8. November 2015, 16:11
Giuseppe Di Stefano / Opera Recital
Used drive : HL-DT-STDVDRAM GH24NSC0 Adapter: 3 ID: 0
Read mode : Secure
Utilize accurate stream : Yes
Defeat audio cache : Yes
Make use of C2 pointers : No
Read offset correction : 6
Overread into Lead-In and Lead-Out : No
Fill up missing offset samples with silence : Yes
Delete leading and trailing silent blocks : No
Null samples used in CRC calculations : Yes
Used interface : Native Win32 interface for Win NT & 2000
Gap handling : Appended to previous track
Used output format : User Defined Encoder
Selected bitrate : 768 kBit/s
Quality : High
Add ID3 tag : No
Command line compressor : C:\Program Files (x86)\Exact Audio Copy\FLAC\FLAC.EXE
Additional command line options : -8 -V -T "ARTIST=%artist%" -T "TITLE=%title%" -T "ALBUM=%albumtitle%" -T "DATE=%year%" -T "TRACKNUMBER=%tracknr%" -T "GENRE=%genre%" -T "PERFORMER=%albuminterpret%" -T "COMPOSER=%composer%" %haslyrics%--tag-from-file=LYRICS="%lyricsfile%"%haslyrics% -T "ALBUMARTIST=%albumartist%" -T "DISCNUMBER=%cdnumber%" -T "TOTALDISCS=%totalcds%" -T "TOTALTRACKS=%numtracks%" -T "COMMENT=%comment%" %source% -o %dest%
TOC of the extracted CD
Track | Start | Length | Start sector | End sector
---------------------------------------------------------
1 | 0:00.00 | 4:20.52 | 0 | 19551
2 | 4:20.52 | 5:05.18 | 19552 | 42444
3 | 9:25.70 | 4:00.23 | 42445 | 60467
4 | 13:26.18 | 5:15.54 | 60468 | 84146
5 | 18:41.72 | 3:04.39 | 84147 | 97985
6 | 21:46.36 | 3:19.00 | 97986 | 112910
7 | 25:05.36 | 4:25.35 | 112911 | 132820
8 | 29:30.71 | 2:39.53 | 132821 | 144798
9 | 32:10.49 | 2:03.62 | 144799 | 154085
10 | 34:14.36 | 2:42.39 | 154086 | 166274
11 | 36:57.00 | 1:46.46 | 166275 | 174270
12 | 38:43.46 | 2:11.23 | 174271 | 184118
13 | 40:54.69 | 4:38.07 | 184119 | 204975
Track 1
Filename f:\Users\Guillermo\Desktop\EAC convertidos\01 Giuseppe Di Stefano, Orchestra del Maggio Musicale Fiorentino, Bruno Bartoletti , Verdi - Aida - Se quel guerrier io fossi!... Celeste Aida.wav
Pre-gap length 0:00:02.00
Peak level 78.0 %
Extraction speed 1.4 X
Track quality 99.9 %
Test CRC CD2BCB02
Copy CRC CD2BCB02
Copy OK
Track 2
Filename f:\Users\Guillermo\Desktop\EAC convertidos\02 Giuseppe Di Stefano, Orchestra del Maggio Musicale Fiorentino, Bruno Bartoletti , Verdi - Luisa Miller - Oh! fede negar potessi agli'occhi miei... Quando le sere al placido.wav
Peak level 79.6 %
Extraction speed 1.9 X
Track quality 100.0 %
Test CRC 4FBF0E73
Copy CRC 4FBF0E73
Copy OK
Track 3
Filename f:\Users\Guillermo\Desktop\EAC convertidos\03 Giuseppe Di Stefano, Orchestra del Maggio Musicale Fiorentino, Bruno Bartoletti , Verdi - Otello - Dio! mi potevi scagliar tutti i mali.wav
Peak level 98.5 %
Extraction speed 2.0 X
Track quality 100.0 %
Test CRC A158266B
Copy CRC A158266B
Copy OK
Track 4
Filename f:\Users\Guillermo\Desktop\EAC convertidos\04 Giuseppe Di Stefano, Orchestra del Maggio Musicale Fiorentino, Bruno Bartoletti , Verdi - Otello - Niun mi tema.wav
Peak level 96.8 %
Extraction speed 2.3 X
Track quality 100.0 %
Test CRC E04ED099
Copy CRC E04ED099
Copy OK
Track 5
Filename f:\Users\Guillermo\Desktop\EAC convertidos\05 Giuseppe Di Stefano, Orchestra del Maggio Musicale Fiorentino, Bruno Bartoletti , Boito - Mefistofele - Giunto sul passo estremo.wav
Peak level 47.9 %
Extraction speed 1.8 X
Track quality 99.8 %
Test CRC 3231BD0E
Copy CRC 3231BD0E
Copy OK
Track 6
Filename f:\Users\Guillermo\Desktop\EAC convertidos\06 Giuseppe Di Stefano, Orchestra del Maggio Musicale Fiorentino, Bruno Bartoletti , Meyerbeer - L'Africana - Mi batte il cor... O Paradiso.wav
Peak level 65.3 %
Extraction speed 2.3 X
Track quality 100.0 %
Test CRC 70DB690A
Copy CRC 70DB690A
Copy OK
Track 7
Filename f:\Users\Guillermo\Desktop\EAC convertidos\07 Giuseppe Di Stefano, Orchestra del Maggio Musicale Fiorentino, Bruno Bartoletti , Ponchielli - La Gioconda - Cielo e mar!.wav
Peak level 67.2 %
Extraction speed 2.2 X
Track quality 99.9 %
Test CRC ADF3885F
Copy CRC ADF3885F
Copy OK
Track 8
Filename f:\Users\Guillermo\Desktop\EAC convertidos\08 Giuseppe Di Stefano, Orchestra del Maggio Musicale Fiorentino, Bruno Bartoletti , Puccini - La fanciulla del West - Or son sei mesi.wav
Peak level 83.9 %
Extraction speed 2.3 X
Track quality 100.0 %
Test CRC 3ED49E3F
Copy CRC 3ED49E3F
Copy OK
Track 9
Filename f:\Users\Guillermo\Desktop\EAC convertidos\09 Giuseppe Di Stefano, Orchestra del Maggio Musicale Fiorentino, Bruno Bartoletti , Cilea - Adriana Lecouvreur - La dolcissima effigie.wav
Peak level 57.6 %
Extraction speed 2.2 X
Track quality 100.0 %
Test CRC EA231DEC
Copy CRC EA231DEC
Copy OK
Track 10
Filename f:\Users\Guillermo\Desktop\EAC convertidos\10 Giuseppe Di Stefano, Orchestra del Maggio Musicale Fiorentino, Bruno Bartoletti , Leoncavallo - La Bohème - Musette! O gioia della mia dimora!.wav
Peak level 75.7 %
Extraction speed 1.9 X
Track quality 99.8 %
Test CRC E7AF17CF
Copy CRC E7AF17CF
Copy OK
Track 11
Filename f:\Users\Guillermo\Desktop\EAC convertidos\11 Giuseppe Di Stefano, Orchestra del Maggio Musicale Fiorentino, Bruno Bartoletti , Giordano - Fedora - Amor ti vieta.wav
Peak level 65.2 %
Extraction speed 2.2 X
Track quality 100.0 %
Test CRC A9709EFA
Copy CRC A9709EFA
Copy OK
Track 12
Filename f:\Users\Guillermo\Desktop\EAC convertidos\12 Giuseppe Di Stefano, Orchestra del Maggio Musicale Fiorentino, Bruno Bartoletti , Pietri - Maristella - Io conosco un giardino.wav
Peak level 62.5 %
Extraction speed 1.8 X
Track quality 99.8 %
Test CRC D2AAF088
Copy CRC D2AAF088
Copy OK
Track 13
Filename f:\Users\Guillermo\Desktop\EAC convertidos\13 Giuseppe Di Stefano, Orchestra del Maggio Musicale Fiorentino, Bruno Bartoletti , Pizzetti - Il Calzare d'Argento - Davvero, quanto grande è la miseria.wav
Peak level 91.8 %
Extraction speed 2.9 X
Track quality 100.0 %
Test CRC 5F648CE8
Copy CRC 5F648CE8
Copy OK
No errors occurred
End of status report
==== Log checksum FBD2DD2A2B1DE80B751AFA70007BA89FE532D2F7306388BC9198AC83CF13A557 ====

Содержание индексной карты (.CUE)

REM GENRE Opera
REM DATE 1963
REM DISCID A60AAD0D
REM COMMENT "ExactAudioCopy v1.0b3"
FILE "01 Giuseppe Di Stefano, Orchestra del Maggio Musicale Fiorentino, Bruno Bartoletti , Verdi - Aida - Se quel guerrier io fossi!... Celeste Aida.wav" WAVE
TRACK 01 AUDIO
INDEX 01 00:00:00
FILE "02 Giuseppe Di Stefano, Orchestra del Maggio Musicale Fiorentino, Bruno Bartoletti , Verdi - Luisa Miller - Oh! fede negar potessi agli'occhi miei... Quando le sere al placido.wav" WAVE
TRACK 02 AUDIO
INDEX 01 00:00:00
FILE "03 Giuseppe Di Stefano, Orchestra del Maggio Musicale Fiorentino, Bruno Bartoletti , Verdi - Otello - Dio! mi potevi scagliar tutti i mali.wav" WAVE
TRACK 03 AUDIO
INDEX 01 00:00:00
FILE "04 Giuseppe Di Stefano, Orchestra del Maggio Musicale Fiorentino, Bruno Bartoletti , Verdi - Otello - Niun mi tema.wav" WAVE
TRACK 04 AUDIO
INDEX 01 00:00:00
FILE "05 Giuseppe Di Stefano, Orchestra del Maggio Musicale Fiorentino, Bruno Bartoletti , Boito - Mefistofele - Giunto sul passo estremo.wav" WAVE
TRACK 05 AUDIO
INDEX 01 00:00:00
FILE "06 Giuseppe Di Stefano, Orchestra del Maggio Musicale Fiorentino, Bruno Bartoletti , Meyerbeer - L'Africana - Mi batte il cor... O Paradiso.wav" WAVE
TRACK 06 AUDIO
INDEX 01 00:00:00
FILE "07 Giuseppe Di Stefano, Orchestra del Maggio Musicale Fiorentino, Bruno Bartoletti , Ponchielli - La Gioconda - Cielo e mar!.wav" WAVE
TRACK 07 AUDIO
INDEX 01 00:00:00
FILE "08 Giuseppe Di Stefano, Orchestra del Maggio Musicale Fiorentino, Bruno Bartoletti , Puccini - La fanciulla del West - Or son sei mesi.wav" WAVE
TRACK 08 AUDIO
INDEX 01 00:00:00
FILE "09 Giuseppe Di Stefano, Orchestra del Maggio Musicale Fiorentino, Bruno Bartoletti , Cilea - Adriana Lecouvreur - La dolcissima effigie.wav" WAVE
TRACK 09 AUDIO
INDEX 01 00:00:00
FILE "10 Giuseppe Di Stefano, Orchestra del Maggio Musicale Fiorentino, Bruno Bartoletti , Leoncavallo - La Bohиme - Musette! O gioia della mia dimora!.wav" WAVE
TRACK 10 AUDIO
INDEX 01 00:00:00
FILE "11 Giuseppe Di Stefano, Orchestra del Maggio Musicale Fiorentino, Bruno Bartoletti , Giordano - Fedora - Amor ti vieta.wav" WAVE
TRACK 11 AUDIO
INDEX 01 00:00:00
FILE "12 Giuseppe Di Stefano, Orchestra del Maggio Musicale Fiorentino, Bruno Bartoletti , Pietri - Maristella - Io conosco un giardino.wav" WAVE
TRACK 12 AUDIO
INDEX 01 00:00:00
FILE "13 Giuseppe Di Stefano, Orchestra del Maggio Musicale Fiorentino, Bruno Bartoletti , Pizzetti - Il Calzare d'Argento - Davvero, quanto grande и la miseria.wav" WAVE
TRACK 13 AUDIO
INDEX 01 00:00:00

Треклист

Giuseppe Verdi:
1. Aida - Act 1: "Se quel guerrier io fossi!" - "Celeste Aida"
2. Luisa Miller - Act 2: "Oh! fede negar potessi" - "Quando le sere al placido"
Otello:
3. Act 3: "Dio! mi potevi scagliar"
4. Act 4: "Niun mi tema"
5. Arrigo Boïto - Mefistofele - Act 4: "Giunto sul passo estremo"
6. Giacomo Meyerbeer - L'Africaine - Act 4: "Mi batte il cor... O Paradiso!"
7. Amilcare Ponchielli - La Gioconda - Act 2: "Cielo e mar"
8. Giacomo Puccini - La Fanciulla del West - Act 2: " Or son sei mesi"
9. Francesco Cilèa - Adriana Lecouvreur - Act 1: "La dolcissima effigie"
10. Ruggiero Leoncavallo - La bohème - Act 3: "Musette! O gioja della mia di mora!"
11. Umberto Giordano - Fedora - Act 2: "Amor ti vieta"
12. Giuseppe Pietri - Maristella - Act 1: "Io conosco un giardino"
13. Ildebrando Pizzetti - Il Calzare d'Argento: Davvero, quanto grande è la miseria



Показать сообщения:    

Текущее время: 20-Янв 16:52

Часовой пояс: UTC + 3


Вы не можете начинать темы
Вы не можете отвечать на сообщения
Вы не можете редактировать свои сообщения
Вы не можете удалять свои сообщения
Вы не можете голосовать в опросах
Вы не можете прикреплять файлы к сообщениям
Вы не можете скачивать файлы