Самуил Маршак. Обыкновенный гений (Ирина Фирсова) [2010, Документальный, биография, литература, IPTVRip]


Статистика раздачи [Обновить пиров]
Размер:  697 MB   |    Зарегистрирован:  8 месяцев 20 дней   |    Скачан:  0 раз

Полного источника не было: Никогда

 
   
 
 
 

[Цитировать]

Самуил Маршак. Обыкновенный гений
Дата/Год выпуска: 2010
Страна: Россия
Жанр: Документальный, биография, литература
Продолжительность: 00:45:44
Перевод: Не требуется
Русские субтитры: нет
Режиссер: Ирина Фирсова
Телеканал: Культура
Описание: Фильм – попытка взглянуть на судьбу поэта Самуила Маршака в историческом контексте. Герой и его непростое время – это противостояние двух равных по силе величин? Или время, заставившее поэта, которому прочили славу второго Пушкина, бежать в мир детского стихосложения и лирических переводов, оказалось сильнее? Тогда почему руководство страны и лично товарищ Сталин закрыли глаза на довольно бурный антибольшевисткий период в творчестве поэта? На эти и многие другие вопросы отвечают потомки Самуила Маршака и эксперты: внук поэта Александр Маршак, невестка Мария Маршак, литературный секретарь поэта Владимир Познер, доктор филологических наук, писатель Матвей Гейзер, доктор филологических наук Ирина Арзамасцева, доктор исторических наук Лола Звонарева, друг семьи Маршака Людмила Сосина, народный артист РФ Александр Леньков, заслуженный деятель искусств РФ Борис Грачевский, писатель Василий Субботин.
Сэмпл: http://multi-up.com/1074688
качество: IPTVRip
формат: AVI
Видео: 720x384 (1.88:1), 25 fps, ATI YVU12 4:2:0 Planar ~1927 kbps avg, 0.28 bit/pixel
Аудио: 48 kHz, AC3 Dolby Digital, 2/0 (L,R) ch, ~192 kbps

MediaInfo

General
Complete name : W:\Pshichko66\Na zapis'\Документальные фильмы\Samuil Marshak. Obyknovennyj genij.avi
Format : AVI
Format/Info : Audio Video Interleave
File size : 697 MiB
Duration : 45mn 44s
Overall bit rate : 2 129 Kbps
Writing application : VirtualDubMod 1.5.10.2 (build 2540/release)
Writing library : VirtualDubMod build 2540/release
Video
ID : 0
Format : MPEG-4 Visual
Format profile : Advanced Simple@L5
Format settings, BVOP : 2
Format settings, QPel : No
Format settings, GMC : No warppoints
Format settings, Matrix : Custom
Codec ID : XVID
Codec ID/Hint : XviD
Duration : 45mn 44s
Bit rate : 1 927 Kbps
Width : 720 pixels
Height : 384 pixels
Display aspect ratio : 1.85:1
Frame rate : 25.000 fps
Color space : YUV
Chroma subsampling : 4:2:0
Bit depth : 8 bits
Scan type : Progressive
Compression mode : Lossy
Bits/(Pixel*Frame) : 0.279
Stream size : 631 MiB (91%)
Writing library : XviD 73
Audio
ID : 1
Format : AC-3
Format/Info : Audio Coding 3
Mode extension : CM (complete main)
Format settings, Endianness : Big
Codec ID : 2000
Duration : 45mn 44s
Bit rate mode : Constant
Bit rate : 192 Kbps
Channel(s) : 2 channels
Channel positions : Front: L R
Sampling rate : 48.0 KHz
Compression mode : Lossy
Stream size : 62.8 MiB (9%)
Alignment : Split accross interleaves
Interleave, duration : 40 ms (1.00 video frame)
Interleave, preload duratio : 500 ms
[teatrix.ru].t22560.torrent 
Торрент: Зарегистрирован [ 2016-03-21 00:26 ] · F44758F0F0BF021568FBAC869AAEE70A7AFC1C3F

Скачать .torrent

Скачать

14 KB

Статус: проверено
Скачан: 0 раз
Размер: 697 MB
terms.php



Быстрый ответ

Имя:

      
Для отправки сообщений необходимо включить JavaScript
Показать сообщения:    

Текущее время: 10-Дек 19:38

Часовой пояс: UTC + 3


Вы можете начинать темы
Вы можете отвечать на сообщения
Вы не можете редактировать свои сообщения
Вы не можете удалять свои сообщения
Вы не можете голосовать в опросах
Вы не можете прикреплять файлы к сообщениям
Вы можете скачивать файлы