Иммануил Кант. Философская тропа (Наталья Лоскутова) [2013, Хроникально-документальный, DVB-AVC]


Статистика раздачи [Обновить пиров]
Размер:  881 MB   |    Зарегистрирован:  8 месяцев 20 дней   |    Скачан:  0 раз

Полного источника не было: Никогда

 
   
 
 
 

[Цитировать]

Иммануил Кант. Философская тропа
Год выпуска: 2013
Страна: Российская Федерация
Студия: Компания АТК-Студио
Жанр: Хроникально-документальный
Продолжительность: 00:51:58
Режиссер: Наталья Лоскутова
В ролях: Александр Васильев
Описание:
Портрет самого прославленного жителя Кенигсберга, величайшего философа и гуманиста эпохи Просвещения, Иммануила Канта. Цель фильма — опровергнуть расхожее представление о жизни философа, как о скупой на события, несуществующей истории; убедительно и правдиво доказать глубокую взаимосвязь между жизненным и философским путями гениального ученого и необыкновенного человека.
Доп. информация:
Оператор: Михаил Украинский
Художник: Анастасия Кожина
Продюсеры: Александр Тютрюмов, Анна Тютрюмова (иcп.)
Премьера: 22 апреля 2013
Запись потока *.ts с наземного цифрового телеканала "Беларусь 3", ремукс в *.mkv программой VideoReDo.
Источник: собственный рип
Качество: DVB-AVC
Контейнер: MKV
Видео кодек: H.264
Аудио кодек: MP2
Видео: MPEG4 Video (H264) 720x576 (49:36) 25fps, 2 068 Kbps
Аудио: MPEG Audio 48000Hz stereo 256kbps
Сэмпл: http://rusfolder.com/44422941

MediaInfo

General
Unique ID : 98459968780844176391386901529734433345 (0x4A12B3419B9AAAD49F142723969C4A41)
Complete name : D:\Новая земля 2\001 Документальный фильмы\Личности\Иммануил Кант. Философская тропа (2013)\Иммануил Кант. Философская тропа (2013).mkv
Format : Matroska
Format version : Version 2
File size : 881 MiB
Duration : 51mn 58s
Overall bit rate : 2 371 Kbps
Writing application : Lavf52.64.2
Writing library : Lavf52.64.2
Video
ID : 1
Format : AVC
Format/Info : Advanced Video Codec
Format profile : Main@L3.0
Format settings, CABAC : Yes
Format settings, ReFrames : 4 frames
Format settings, GOP : M=4, N=24
Codec ID : V_MPEG4/ISO/AVC
Duration : 51mn 58s
Bit rate : 2 068 Kbps
Width : 720 pixels
Height : 576 pixels
Display aspect ratio : 4:3
Original display aspect ratio : 4:3
Frame rate mode : Constant
Frame rate : 25.000 fps
Standard : PAL
Color space : YUV
Chroma subsampling : 4:2:0
Bit depth : 8 bits
Scan type : MBAFF
Scan order : Top Field First
Bits/(Pixel*Frame) : 0.199
Stream size : 768 MiB (87%)
Default : Yes
Forced : No
Color primaries : BT.601 PAL
Transfer characteristics : BT.470 System B, BT.470 System G
Matrix coefficients : BT.601
Color range : Limited
Audio
ID : 2
Format : MPEG Audio
Format version : Version 1
Format profile : Layer 2
Codec ID : A_MPEG/L2
Codec ID/Hint : MP2
Duration : 51mn 58s
Bit rate mode : Constant
Bit rate : 256 Kbps
Channel(s) : 2 channels
Sampling rate : 48.0 KHz
Compression mode : Lossy
Stream size : 95.2 MiB (11%)
Language : English
Default : Yes
Forced : No
[teatrix.ru].t22562.torrent 
Торрент: Зарегистрирован [ 2016-03-21 00:26 ] · B44A5C673CEC515A4B6EC533A0C6FA26C946C621

Скачать .torrent

Скачать

18 KB

Статус: проверено
Скачан: 0 раз
Размер: 881 MB
terms.php



Быстрый ответ

Имя:

      
Для отправки сообщений необходимо включить JavaScript
Показать сообщения:    

Текущее время: 10-Дек 15:43

Часовой пояс: UTC + 3


Вы можете начинать темы
Вы можете отвечать на сообщения
Вы не можете редактировать свои сообщения
Вы не можете удалять свои сообщения
Вы не можете голосовать в опросах
Вы не можете прикреплять файлы к сообщениям
Вы можете скачивать файлы