(Classical) Wolfgang Amadeus Mozart - Oboe Concerto, Quartet, Sonata - Алексей Огринчук (Ogrintchouk), Борис Бровцын, Максим Рысанов, Kristina Blaumane, Lithuanian Chamber Orchestra - 2013, FLAC (image+.cue) lossless


Статистика раздачи [Обновить пиров]
Размер:  233 MB   |    Зарегистрирован:  8 месяцев 21 день   |    Скачан:  1 раз

Полного источника не было: 7 месяцев 19 дней

 
   
 
 
 

[Цитировать]

Wolfgang Amadeus Mozart - Oboe Concerto, Quartet, Sonata - Алексей Огринчук (Ogrintchouk), Борис Бровцын, Максим Рысанов, Kristina Blaumane, Lithuanian Chamber Orchestra
Жанр: Classical
Страна-производитель диска: Sweden
Год издания диска: 2013
Издатель (лейбл): BIS
Номер по каталогу: BIS-SACD-2007
Дата записи: 2011, 2012
Аудиокодек: FLAC
Тип рипа: image+.cue
Битрейт аудио: lossless
Продолжительность: 55:52
Источник: собственный рип
Наличие сканов в содержимом раздачи: да
Треклист:
Wolfgang Amadeus Mozart (1756–91)
[1]-[3] Quartet in F major for oboe, violin, viola and cello, K 370 (1781)
Boris Brovtsyn violin
Maxim Rysanov viola
Kristina Blaumane cello
[4]-[6] Concerto in C major for Oboe and Orchestra, K 314 (1777)
Lithuanian Chamber Orchestra
[7]-[9] Sonata for Violin and Piano in B flat major, K 378 (1779–80)
arranged for oboe and piano by L. Slavinsky
Leonid Ogrintchouk piano
Исполнители:
Alexei Ogrintchouk oboe & direction
Boris Brovtsyn violin
Maxim Rysanov viola
Kristina Blaumane cello
Leonid Ogrintchouk piano
Lithuanian Chamber Orchestra

Лог создания рипа

Exact Audio Copy V1.0 beta 3 from 29. August 2011
EAC extraction logfile from 18. March 2015, 21:01
Alexei Ogrintchouk, Lithuanian Chamber Orchestra / Mozart - Oboe Concerto, Quartet & Sonata
Used drive : HL-DT-STDVDRAM GU70N Adapter: 0 ID: 0
Read mode : Secure
Utilize accurate stream : Yes
Defeat audio cache : Yes
Make use of C2 pointers : No
Read offset correction : 48
Overread into Lead-In and Lead-Out : No
Fill up missing offset samples with silence : Yes
Delete leading and trailing silent blocks : No
Null samples used in CRC calculations : Yes
Used interface : Native Win32 interface for Win NT & 2000
Used output format : User Defined Encoder
Selected bitrate : 128 kBit/s
Quality : High
Add ID3 tag : No
Command line compressor : C:\Program Files (x86)\Exact Audio Copy\Flac\flac.exe
Additional command line options : -V -8 -T "Date=%year%" -T "Genre=%genre%" %source%
TOC of the extracted CD
Track | Start | Length | Start sector | End sector
---------------------------------------------------------
1 | 0:00.00 | 6:27.69 | 0 | 29093
2 | 6:27.69 | 3:19.59 | 29094 | 44077
3 | 9:47.53 | 4:28.64 | 44078 | 64241
4 | 14:16.42 | 6:50.40 | 64242 | 95031
5 | 21:07.07 | 7:20.29 | 95032 | 128060
6 | 28:27.36 | 5:53.53 | 128061 | 154588
7 | 34:21.14 | 9:10.06 | 154589 | 195844
8 | 43:31.20 | 7:34.15 | 195845 | 229909
9 | 51:05.35 | 4:47.31 | 229910 | 251465
Range status and errors
Selected range
Filename C:\temp\BIS-SACD-2007 - Mozart - Oboe Concerto, Quartet, Sonata\Mozart - Oboe Concerto, Quartet & Sonata.wav
Peak level 97.7 %
Extraction speed 2.1 X
Range quality 99.9 %
Test CRC 88DDEB6F
Copy CRC 88DDEB6F
Copy OK
No errors occurred
AccurateRip summary
Track 1 accurately ripped (confidence 2) [64C85CB3] (AR v2)
Track 2 accurately ripped (confidence 2) [43336263] (AR v2)
Track 3 accurately ripped (confidence 2) [E84486ED] (AR v2)
Track 4 accurately ripped (confidence 2) [779BC868] (AR v2)
Track 5 accurately ripped (confidence 2) [74F2F6D2] (AR v2)
Track 6 accurately ripped (confidence 2) [4DBEE362] (AR v2)
Track 7 accurately ripped (confidence 2) [930C5A31] (AR v2)
Track 8 accurately ripped (confidence 2) [EE99A073] (AR v2)
Track 9 accurately ripped (confidence 2) [93C7EE95] (AR v2)
All tracks accurately ripped
End of status report
==== Log checksum 6F366996E01F58A51A0BC25F5CDF84217BA09AA77ADC9AE098C8AE4729504BFB ====
[teatrix.ru].t22565.torrent 
Торрент: Зарегистрирован [ 2016-03-21 00:28 ] · 63778562638BA69121F7C15A7244CE269AE35D2E

Скачать .torrent

Скачать

38 KB

Статус: проверено
Скачан: 1 раз
Размер: 233 MB
terms.php



Быстрый ответ

Имя:

      
Для отправки сообщений необходимо включить JavaScript
Показать сообщения:    

Текущее время: 11-Дек 03:16

Часовой пояс: UTC + 3


Вы можете начинать темы
Вы можете отвечать на сообщения
Вы не можете редактировать свои сообщения
Вы не можете удалять свои сообщения
Вы не можете голосовать в опросах
Вы не можете прикреплять файлы к сообщениям
Вы можете скачивать файлы