[TR24][OF] Juan Diego Florez - Italia (Collection of Canzoni Italiane by Tosti, Donizetti, Rossini, Leoncavallo, DiCapua, Curtis) - 2015 (Vocal)


Статистика раздачи [Обновить пиров]
Размер:  1.03 GB   |    Зарегистрирован:  8 месяцев 19 дней   |    Скачан:  2 раза

Полного источника не было: 1 месяц 22 дня

 
   
 
 
 

[Цитировать]

Juan Diego Flórez - Italia
Формат записи/Источник записи: [TR24][OF]
Наличие водяных знаков: Нет
Год издания: 2015
Жанр: Vocal, Canzoni Italiane
Издатель(лейбл): DECCA
Продолжительность: 56:16
Исполнители:
Juan Diego Flórez, tenor,
Filarmonica Gioachino Rossini, Orchestra,
Carlo Tenan, Conductor.
Recorded at Teatro della Fortuna, Fano, Italy, September 2014.
Контейнер: FLAC (*.flac)
Тип рипа: tracks
Разрядность: 24/96
Количество каналов: 2.0
Источник: Presto Classical

Треклист

1. Ernesto de Curtis - Torna a Surriento
2. Renato Rascel - Arrivederci Roma
3. Gaetano Donizetti - Amor Marinaro (Me voglio fa' 'na casa)
4. Cesare Andrea Bixio - La canzone dell'amore
5. Gioacchino Rossini - Bolero ("Mi lagnero tacendò")
6. Francesco Paolo Tosti - Marechiare
7. Ruggiero Leoncavallo - Mattinata
8. Eldo di Lazarro - Chitarra Romana
9. Anonymous - La nova gelosia
10. Gioacchino Rossini - La Danza
11. Stefano Donaudy - Vaghissima sembianza
12. Stanislao Gastaldon - Musica proibita
13. Domenico Modugno - Nel blu, di pinto di blu ("Volare")
14. Francesco Paolo Tosti / Gabriele D'Annunzio - L'alba separa dalla luce l'ombra
15. Ernesto de Curtis - Non ti scordar di me
16. Cesare Andrea Bixio - Parlami d'amore, Mariù
17. Eduardo DiCapua, Alfredo Mazzucchi - O sole mio

DR-Report

foobar2000 1.3.6 / Замер динамического диапазона (DR) 1.1.1
Дата отчёта: 2015-11-10 21:21:43
--------------------------------------------------------------------------------
Анализ: Juan Diego Flórez/Avi Avital/Filarmonica Gioachino Rossini / Juan Diego Flórez: Italia (1)
Juan Diego Flórez/Avi Avital/Ksenija Sidorova/Filarmonica Gioachino Rossini / Juan Diego Flórez: Italia (2-3)
Juan Diego Flórez/Avi Avital/Ksenija Sidorova / Juan Diego Flórez: Italia (4-7)
Juan Diego Flórez/Craig Ogden / Juan Diego Flórez: Italia (8-9)
Juan Diego Flórez/Filarmonica Gioachino Rossini / Juan Diego Flórez: Italia (10-15)
Juan Diego Flórez/Guido Sodo/Avi Avital / Juan Diego Flórez: Italia (16)
Juan Diego Flórez/Guido Sodo / Juan Diego Flórez: Italia (17)
--------------------------------------------------------------------------------
DR Пики RMS Продолжительность трека
--------------------------------------------------------------------------------
DR13 -0.20 дБ -15.68 дБ 3:03 10-La Danza
DR12 -0.13 дБ -17.16 дБ 3:43 12-Musica proibita
DR11 -0.15 дБ -15.74 дБ 3:29 15-Non ti scordar di me
DR13 -1.94 дБ -19.40 дБ 3:49 02-Arrivederci Roma
DR13 -0.29 дБ -17.23 дБ 3:09 03-Amor Marinaro (Me voglio fa’ ‘na casa)
DR12 -0.12 дБ -16.71 дБ 3:26 06-Marechiare
DR11 -1.10 дБ -17.98 дБ 3:30 08-Chitarra Romana
DR12 -5.00 дБ -21.44 дБ 3:22 04-La canzone dell’amore
DR12 -5.11 дБ -21.50 дБ 3:15 16-Parlami d’amore, Mariù
DR12 -0.71 дБ -16.78 дБ 4:30 01-Torna a Surriento
DR13 -0.20 дБ -17.63 дБ 3:22 05-Bolero
DR11 -0.15 дБ -15.27 дБ 2:17 07-Mattinata
DR12 -1.73 дБ -17.25 дБ 2:30 11-Vaghissima sembianza
DR13 -0.10 дБ -16.61 дБ 4:09 13-Nel blu, di pinto di blu (“Volare”)
DR12 -0.15 дБ -17.45 дБ 3:10 14-L'alba separa dalla luce l'ombra
DR10 -3.87 дБ -18.43 дБ 3:16 17-O sole mio
DR12 -9.38 дБ -25.19 дБ 2:16 09-La nova gelosia
--------------------------------------------------------------------------------
Количество треков: 17
Реальные значения DR: DR12
Частота: 96000 Гц
Каналов: 2
Разрядность: 24
Битрейт: 2369 кбит/с
Кодек: FLAC
================================================================================
[teatrix.ru].t22567.torrent 
Торрент: Зарегистрирован [ 2016-03-21 00:25 ] · 1AF799C00D24C569DCDF2023AAE96F36ECBDCC9E

Скачать .torrent

Скачать

12 KB

Статус: проверено
Скачан: 2 раз
Размер: 1.03 GB
terms.php



Быстрый ответ

Имя:

      
Для отправки сообщений необходимо включить JavaScript
Показать сообщения:    

Текущее время: 09-Дек 03:00

Часовой пояс: UTC + 3


Вы можете начинать темы
Вы можете отвечать на сообщения
Вы не можете редактировать свои сообщения
Вы не можете удалять свои сообщения
Вы не можете голосовать в опросах
Вы не можете прикреплять файлы к сообщениям
Вы можете скачивать файлы