(Classical, Harpsichord,) [LP] [24/96] J.S. Bach, C.P.E. Bach – Harpsichord concertos - 1976, FLAC (tracks+.cue)


Статистика раздачи [Обновить пиров]
Размер:  930 MB   |    Зарегистрирован:  8 месяцев 15 дней   |    Скачан:  0 раз

Полного источника не было: Никогда

 
   
 
 
 

[Цитировать]

J.S. Bach, C.P.E. Bach – Harpsichord concertos
Жанр: Classical, Harpsichord
Носитель: LP
Год выпуска: 1976
Лейбл: Harmonia Mundi (Basf) 37-93.182
Страна-производитель: Spain
Аудио кодек: FLAC
Тип рипа: tracks+.cue
Формат записи: 24/96
Формат раздачи: 24/96
Продолжительность: 45:43
Треклист:
A1. Bach-Conc. clave, Allegro
A2. Bach-Conc. clave, Adagio
A3. Bach-Conc. clave, Allegro
B1. CPE Bach-Doble Conc. clave, Allegro
B2. CPE Bach-Doble Conc. clave, Largo
B3. CPE Bach-Doble Conc. clave, Allegro assai
Источник оцифровки: saidalani

Тех. информация

RCM: Clearaudio Smart Matrix (ClearAudio Pure Groove + L’Art du Son Cleaning Fluid + Osage brush)
Ultrasonic Cleaning (40 kHz) for 30′-60' at 35°C max. with personal blend of wetting agents and surfactants.
THE CLEAN Continuous Battery Power Supply (CBPS) Dr. Feickert for turntables.
TURNTABLE: Dr. Feickert Blackbird + INERTIA platter
TONEARM: Reed 3Q 10,5" (Finewire C37 + Cryo WBT Nextgen, Armwand Pernambuco, Headshell with VTA and Azimuth laser adjustment)
CARTRIDGE: Dynavector DV DRT XV-1t
PHONO STAGE: Allnic H-3000 (+22 dB GAIN, charge impedance 118 Ohm)
ADC SYSTEM: Lavry Black AD11 external USB 2.0 ADC
CABLES:
FONO ACUSTICA ALLEGRO Interconnect Cable TS/RCA made expressly for me (for connecting phono preamp and ADC system)
SYNERGISTIC Research USB Active SE Cable with Enigma Tuning Circuits (for connecting ADC system and PC)
Furutech G-314AG-18 High performance Power Cable (4 power cables total)
Synergistic Research SR Core RCA (for connecting signal from the PC to the amplifier)
AND ALSO...
FURUTECH Destat II, Static charge remover
Lyra SPT (stylus performance treatment)
Platterspeed for iPod Touch (Dr. Feickert) speed verifier
ALLNIC Speednic
SOFTWARE:
Adobe Audition CS6 (record 24/96)
Izotope RX3 Advanced (big clicks repair)
FLAC FRONTEND v.2.0 using FLAC 1.3.0 (WAV --> FLAC)
PENAUDIO REBEL3 Monitor Loudspeakers
HEGEL 100 Amplifier
RIPPING NOTE:
No Equalization, Minor Click repair (whenever possible an manual mode with Izotope RX), No Noise Reduction and No Normalization.
No silence been removed.
THE DYNAMIC RANGE OF THIS CAPTURE WAS NOT ALTERED IN ANY WAY DURING EDITING.
The two channels have been captured at the same volume level with my ADC system. The imbalance between channels, so you can appreciate, it's own vinyl or behavior of my phono preamp to valves. No two valves are identical. In addition, the azimuth of my tonearm-cartridge is perfectly checked by the device laser, being the difference between channels of ±0,2 db

Спектр

АЧХ

Уровень записи

DR12/14

foobar2000 1.3.3 / Dynamic Range Meter 1.1.1
log date: 2015-11-06 10:44:26
--------------------------------------------------------------------------------
Analyzed: JS Bach/CPE Bach / Bach-Concierto clave BWV 1052 (Leonhardt-Curtis)
--------------------------------------------------------------------------------
DR Peak RMS Duration Track
--------------------------------------------------------------------------------
DR13 -2.26 dB -20.75 dB 8:20 ?-A1 Bach-Conc. clave, Allegro
DR11 -7.03 dB -21.65 dB 5:48 ?-A2 Bach-Conc. clave, Adagio
DR12 -3.99 dB -20.79 dB 8:53 ?-A3 Bach-Conc. clave, Allegro
--------------------------------------------------------------------------------
Number of tracks: 3
Official DR value: DR12
Samplerate: 96000 Hz
Channels: 2
Bits per sample: 24
Bitrate: 2707 kbps
Codec: FLAC
================================================================================
--------------------------------------------------------------------------------
Analyzed: JS Bach/CPE Bach / CPE Bach- Doble Concierto clave Wq 46 (Leonhardt-Curtis)
--------------------------------------------------------------------------------
DR Peak RMS Duration Track
--------------------------------------------------------------------------------
DR14 -1.63 dB -19.91 dB 9:57 ?-B1 CPE Bach-Doble Conc. clave, Allegro
DR14 -7.17 dB -26.39 dB 7:23 ?-B2 CPE Bach-Doble Conc. clave, Largo
DR13 -2.08 dB -21.35 dB 5:22 ?-B3 CPE Bach-Doble Conc. clave, Allegro assai
--------------------------------------------------------------------------------
Number of tracks: 3
Official DR value: DR14
Samplerate: 96000 Hz
Channels: 2
Bits per sample: 24
Bitrate: 2653 kbps
Codec: FLAC
================================================================================

Scans

[teatrix.ru].t22569.torrent 
Торрент: Зарегистрирован [ 2016-03-21 00:28 ] · 378405B60FA1724927F65333C7653F904A5CD14D

Скачать .torrent

Скачать

19 KB

Статус: проверено
Скачан: 0 раз
Размер: 930 MB
terms.php



Быстрый ответ

Имя:

      
Для отправки сообщений необходимо включить JavaScript
Показать сообщения:    

Текущее время: 05-Дек 01:18

Часовой пояс: UTC + 3


Вы можете начинать темы
Вы можете отвечать на сообщения
Вы не можете редактировать свои сообщения
Вы не можете удалять свои сообщения
Вы не можете голосовать в опросах
Вы не можете прикреплять файлы к сообщениям
Вы можете скачивать файлы