"Послушайте!" Поэты на Красной Пахре (Ольга Тутушкина) [2015 г., Литературно-музыкальная композиция, SATRip] Московский международный Дом музыки


Статистика раздачи [Обновить пиров]
Размер:  1.11 GB   |    Зарегистрирован:  8 месяцев 16 дней   |    Скачан:  0 раз

Полного источника не было: Никогда

 
   
 
 
 

[Цитировать]

"Послушайте!" Поэты на Красной Пахре Московский международный Дом музыки.
Год выпуска: 2015.
Жанр: Литературно-музыкальная композиция.
Продолжительность: 01:21:38.
Автор и ведущий вечера: Вениамин Смехов.
Стихи звучат в исполнении:
Николая Чиндяйкина, Алексея Верткова, Виктории Исаковой, Игоря Верника, Александры Ребенок, Марии Матвеевой, Александры Басовой, Дмитрия Высоцкого.
Описание:
По числу именитых литераторов Пахра могла конкурировать только со знаменитым Переделкино.
Стихи Александра Твардовского, Павла Антокольского, Семена Кирсанова, Михаила Светлова, Юлии Друниной, Николая Эрдмана, Владимира Масса, Зиновия Гердта, Михаила Матусовского звучат в исполнении известных артистов.

В программе
  • Александр Твардовский
    "Мы на свете мало жили..."; "Василий Тёркин" (фрагмент); "Я убит подо Ржевом..."; "Я знаю, никакой моей вины...";
    "По праву памяти" (фрагмент); "На дне моей жизни, на самом донышке..."; "Есть имена и есть такие даты..."
  • Павел Антокольский
    "Мы все лауреаты премий..."; "В долгой жизни своей..."; "Я люблю тебя в дальнем вагоне..."; "Застольная".
  • Николай Эрдман
    "Шумит ночной Марсель..."
  • Владимир Масс
    "История Земли".
  • Николай Эрдман и Владимир Масс
    "Непреложный закон"; "Ворона и сыр"; "Колыбельная".
  • Семён Кирсанов
    "Маяковскому"; "Работа в саду"; "Осень"; "Моросит на Маросейке..."; "Моя автобиография".
  • Юлия Друнина
    "Я порою себя ощущаю связной..."; "И откуда вдруг берутся силы..."; "Я принесла домой с фронтов России...";
    "Два вечера"; "Ухожу, нету сил..."; "Зинка".
  • Михаил Светлов
    "Песенка"; "Время нынче такое..."; "Призрак бродит по Европе..."; "Гренада";
    "Живого или мёртвого жди меня двадцать четвёртого..."; "Все ювелирные магазины - они твои..."
  • Зиновий Гердт
    "Средь сосен ушастых я рюмку подъемлю..."
  • Михаил Матусовский
    "Была звезда, да вдруг сорвалась..."; "Не ищите ландышей..."; "Вологда".
  • Михаил Булгаков
    Фрагмент романа "Мастер и Маргарита".
    Дополнительная информация:
    Страна: Россия .
    Выпущено: © ГТРК "Культура".
    Режиссёр телеверсии: Ольга Тутушкина.
    Оператор-постановщик: Владимир Иванов.
    Художник по свету: Андрей Романов.
    В передаче использована музыка Андрея Петрова, Эдуарда Артемьева, Saint-Preux.
    В декорациях сцены использованы живописные работы Оскара Рабина, Сергея Васильковского, Роберта Фалька, Аркадия Пластова, Валерия Сильянова, Аполлинария Васнецова, Пабло Пикассо.

    Трансляция ГТРК "Культура" в 21:15 01.11.2015 г.
    Релиз
    Рип lesik689.

    Качество видео:...SATRip
    Формат:.................AVI
    Видео:..704x400 (1.76:1), 25 fps, XviD build 64 ~1800 kbps avg, 0.26 bit/pixel
    Аудио:..48 kHz, MPEG Layer 3, 2 ch, ~128.00 kbps avg

    Отчет MI

    General
    Complete name : Poslushayte.Poety.na.Krasnoy.Pakhre.2015.XviD.SATRip.fenixclub.avi
    Format : AVI
    Format/Info : Audio Video Interleave
    File size : 1.11 GiB
    Duration : 1h 21mn
    Overall bit rate : 1 939 Kbps
    Writing application : VirtualDubMod 1.5.10.2 (build 2542/release)
    Writing library : VirtualDubMod build 2542/release
    Video
    ID : 0
    Format : MPEG-4 Visual
    Format profile : Advanced Simple@L5
    Format settings, BVOP : 2
    Format settings, QPel : No
    Format settings, GMC : No warppoints
    Format settings, Matrix : Default (MPEG)
    Codec ID : XVID
    Codec ID/Hint : XviD
    Duration : 1h 21mn
    Bit rate : 1 801 Kbps
    Width : 704 pixels
    Height : 400 pixels
    Display aspect ratio : 5:4
    Original display aspect rat : 16:9
    Frame rate : 25.000 fps
    Color space : YUV
    Chroma subsampling : 4:2:0
    Bit depth : 8 bits
    Scan type : Progressive
    Compression mode : Lossy
    Bits/(Pixel*Frame) : 0.256
    Stream size : 1.03 GiB (93%)
    Writing library : XviD 64
    Audio
    ID : 1
    Format : MPEG Audio
    Format version : Version 1
    Format profile : Layer 3
    Mode : Joint stereo
    Mode extension : MS Stereo
    Codec ID : 55
    Codec ID/Hint : MP3
    Duration : 1h 21mn
    Bit rate mode : Constant
    Bit rate : 128 Kbps
    Channel(s) : 2 channels
    Sampling rate : 48.0 KHz
    Compression mode : Lossy
    Stream size : 74.7 MiB (7%)
    Alignment : Split accross interleaves
    Interleave, duration : 40 ms (1.00 video frame)
    Interleave, preload duratio : 500 ms.

    Скриншоты


    Альтернативный хост


    [teatrix.ru].t22570.torrent 
    Торрент: Зарегистрирован [ 2016-03-21 00:31 ] · AAC5865D0395F6C92758291401DDF886E3AAA4A2

    Скачать .torrent

    Скачать

    12 KB

    Статус: проверено
    Скачан: 0 раз
    Размер: 1.11 GB
    terms.php



  • Быстрый ответ

    Имя:

          
    Для отправки сообщений необходимо включить JavaScript
    Показать сообщения:    

    Текущее время: 06-Дек 18:57

    Часовой пояс: UTC + 3


    Вы можете начинать темы
    Вы можете отвечать на сообщения
    Вы не можете редактировать свои сообщения
    Вы не можете удалять свои сообщения
    Вы не можете голосовать в опросах
    Вы не можете прикреплять файлы к сообщениям
    Вы можете скачивать файлы