(Classical) Wolfgang Amadeus Mozart — Piano Concertos № 20 & 21 (K 466 & 467) (Jan Lisiecky, Christian Zacharias) — 2012, FLAC (tracks+.cue) lossless


Статистика раздачи [Обновить пиров]
Размер:  212 MB   |    Зарегистрирован:  8 месяцев 17 дней   |    Скачан:  1 раз

Полного источника не было: 4 дня

 
   
 
 
 

[Цитировать]

Piano Concertos № 20 & 21 (K 466 & 467)-
Жанр: Classical
Страна-производитель диска: Германия
Год издания диска: 2012
Год записи фонограммы: 2012
Издатель (лейбл): Deutsche Grammophon
Номер по каталогу: 2894790061
Композитор: Wolfgang Amadeus Mozart
Аудио кодек: flac
Тип рипа: tracks+.cue
Битрейт аудио: lossless
Продолжительность: 00h59'33"
Источник: What.CD
Наличие сканов в содержимом раздачи: да-Треклист:
Piano Concerto № 20 d-moll K 466
01. I. Allegro [14'35"]
02. II. Romance [08'32"]
03. III. Rondo. Allegro Assai [08'18"]
Piano Concerto № 21 C-Dur K 467
04. I. Allegro Maestoso [14'34"]
05. II. Andante [06'13"]
06. III. Allegro Vivace Assai [07'21"]-Bavarian Radio Symphony Orchestra, cond. Christian Zacharias, Piano – Jan Lisiecky-

XLD log

X Lossless Decoder version 20130407 (143.0)
[br]
XLD extraction logfile from 2013-04-13 13:38:41 -0400
[br]
Jan Lisiecki; Christian Zacharias: Symphonieorchester Des Bayerischen Rundfunks / Mozart: Piano Concertos Nos.20 & 21
[br]
Used drive : OPTIARC DVD RW AD-5630A (revision 1AHN)
Media type : Pressed CD
[br]
Ripper mode             : XLD Secure Ripper
Disable audio cache     : OK for the drive with a cache less than 1375KiB
Make use of C2 pointers : NO
Read offset correction  : 48
Max retry count         : 20
Gap status              : Analyzed, Appended
[br]
TOC of the extracted CD
Track |   Start  |  Length  | Start sector | End sector
---------------------------------------------------------
1  | 00:00:00 | 14:34:65 |         0    |    65614
2  | 14:34:65 | 08:31:46 |     65615    |   103985
3  | 23:06:36 | 08:18:08 |    103986    |   141343
4  | 31:24:44 | 14:34:37 |    141344    |   206930
5  | 45:59:06 | 06:12:43 |    206931    |   234873
6  | 52:11:49 | 07:21:18 |    234874    |   267966
[br]
AccurateRip Summary (DiscID: 000f932d-00514d69-5c0df406)
Track 01 : OK (v2, confidence 1/1)
Track 02 : OK (v2, confidence 1/1)
Track 03 : Not Found
Track 04 : OK (v2, confidence 1/1)
Track 05 : OK (v2, confidence 1/1)
Track 06 : Not Found
->4 tracks accurately ripped, 2 tracks not found
[br]
All Tracks
Album gain               : 1.50 dB
Peak                     : 0.979919
Statistics
Read error                           : 0
Jitter error (maybe fixed)           : 0
Retry sector count                   : 0
Damaged sector count                 : 0
[br]
Track 01
Filename : /Users/wwbom02/Desktop/Apple Lossless/Jan Lisiecki; Christian Zachariasпјљ Symphonieorchester Des Bayerischen Rundfunks - Mozartпјљ Piano Concertos Nos.20 & 21 (2012) [FLAC]/01 Piano Concerto No.20 in D minor, K.466 - 1. Allegro.flac
Pre-gap length : 00:02:00
[br]
Track gain               : 0.62 dB
Peak                     : 0.923584
CRC32 hash (test run)    : 89C0CE30
CRC32 hash               : 89C0CE30
CRC32 hash (skip zero)   : 47F895DC
AccurateRip v1 signature : FB02D1AD
AccurateRip v2 signature : 051DE24C
->Accurately ripped (v2, confidence 1/1)
Statistics
Read error                           : 0
Jitter error (maybe fixed)           : 0
Retry sector count                   : 0
Damaged sector count                 : 0
[br]
Track 02
Filename : /Users/wwbom02/Desktop/Apple Lossless/Jan Lisiecki; Christian Zachariasпјљ Symphonieorchester Des Bayerischen Rundfunks - Mozartпјљ Piano Concertos Nos.20 & 21 (2012) [FLAC]/02 Piano Concerto No.20 in D minor, K.466 - 2. Romance.flac
[br]
Track gain               : 1.85 dB
Peak                     : 0.677368
CRC32 hash (test run)    : CB6F3C93
CRC32 hash               : CB6F3C93
CRC32 hash (skip zero)   : CEF78ED2
AccurateRip v1 signature : EEB716D5
AccurateRip v2 signature : BE9751F9
->Accurately ripped (v2, confidence 1/1)
Statistics
Read error                           : 0
Jitter error (maybe fixed)           : 0
Retry sector count                   : 0
Damaged sector count                 : 0
[br]
Track 03
Filename : /Users/wwbom02/Desktop/Apple Lossless/Jan Lisiecki; Christian Zachariasпјљ Symphonieorchester Des Bayerischen Rundfunks - Mozartпјљ Piano Concertos Nos.20 & 21 (2012) [FLAC]/03 Piano Concerto No.20 in D minor, K.466 - 3. Rondo (Allegro assai).flac
[br]
Track gain               : 1.05 dB
Peak                     : 0.979919
CRC32 hash (test run)    : A74B4D49
CRC32 hash               : A74B4D49
CRC32 hash (skip zero)   : 55BD11EE
AccurateRip v1 signature : 2DD73B37
AccurateRip v2 signature : 49F5C43F
->Track not present in AccurateRip database.
Statistics
Read error                           : 0
Jitter error (maybe fixed)           : 0
Retry sector count                   : 0
Damaged sector count                 : 0
[br]
Track 04
Filename : /Users/wwbom02/Desktop/Apple Lossless/Jan Lisiecki; Christian Zachariasпјљ Symphonieorchester Des Bayerischen Rundfunks - Mozartпјљ Piano Concertos Nos.20 & 21 (2012) [FLAC]/04 Piano Concerto No.21 in C, K.467 - 1. Allegro maestoso.flac
[br]
Track gain               : 1.63 dB
Peak                     : 0.784698
CRC32 hash (test run)    : A98102D2
CRC32 hash               : A98102D2
CRC32 hash (skip zero)   : 32D1D2B1
AccurateRip v1 signature : C10C0680
AccurateRip v2 signature : 8A3E37E8
->Accurately ripped (v2, confidence 1/1)
Statistics
Read error                           : 0
Jitter error (maybe fixed)           : 0
Retry sector count                   : 0
Damaged sector count                 : 0
[br]
Track 05
Filename : /Users/wwbom02/Desktop/Apple Lossless/Jan Lisiecki; Christian Zachariasпјљ Symphonieorchester Des Bayerischen Rundfunks - Mozartпјљ Piano Concertos Nos.20 & 21 (2012) [FLAC]/05 Piano Concerto No.21 in C, K.467 - 2. Andante.flac
[br]
Track gain               : 6.36 dB
Peak                     : 0.379181
CRC32 hash (test run)    : 9385685E
CRC32 hash               : 9385685E
CRC32 hash (skip zero)   : 7B86CE0E
AccurateRip v1 signature : BC8CA7EF
AccurateRip v2 signature : A66188C7
->Accurately ripped (v2, confidence 1/1)
Statistics
Read error                           : 0
Jitter error (maybe fixed)           : 0
Retry sector count                   : 0
Damaged sector count                 : 0
[br]
Track 06
Filename : /Users/wwbom02/Desktop/Apple Lossless/Jan Lisiecki; Christian Zachariasпјљ Symphonieorchester Des Bayerischen Rundfunks - Mozartпјљ Piano Concertos Nos.20 & 21 (2012) [FLAC]/06 Piano Concerto No.21 in C, K.467 - 3. Allegro vivace assai.flac
[br]
Track gain               : 2.06 dB
Peak                     : 0.912659
CRC32 hash (test run)    : F8EF16A6
CRC32 hash               : F8EF16A6
CRC32 hash (skip zero)   : 0B9F6F18
AccurateRip v1 signature : 564AFEF6
AccurateRip v2 signature : 796816A6
->Track not present in AccurateRip database.
Statistics
Read error                           : 0
Jitter error (maybe fixed)           : 0
Retry sector count                   : 0
Damaged sector count                 : 0
[br]
No errors occurred
[br]
End of status report
-

CUE

TITLE "Mozart: Piano Concertos Nos.20 & 21"
PERFORMER "Jan Lisiecki; Christian Zacharias: Symphonieorchester Des Bayerischen Rundfunks"
CATALOG 0028947900610
REM GENRE "Classical"
REM DATE "2012"
REM DISCNUMBER 1
REM TOTALDISCS 1
REM DISCID 5C0DF406
REM REPLAYGAIN_ALBUM_GAIN 1.50 dB
REM REPLAYGAIN_ALBUM_PEAK 0.979919
FILE "01 Piano Concerto No.20 in D minor, K.466 - 1. Allegro.flac" WAVE
TRACK 01 AUDIO
TITLE "Piano Concerto No.20 in D minor, K.466 - 1. Allegro"
SONGWRITER "Wolfgang Amadeus Mozart/Wolfgang Amadeus Mozart/Mozart, Wolfgang Amadeus [Composer]"
ISRC DEN961201031
REM REPLAYGAIN_TRACK_GAIN 0.62 dB
REM REPLAYGAIN_TRACK_PEAK 0.923584
INDEX 01 00:00:00
FILE "02 Piano Concerto No.20 in D minor, K.466 - 2. Romance.flac" WAVE
TRACK 02 AUDIO
TITLE "Piano Concerto No.20 in D minor, K.466 - 2. Romance"
SONGWRITER "Wolfgang Amadeus Mozart/Wolfgang Amadeus Mozart/Mozart, Wolfgang Amadeus [Composer]"
ISRC DEN961201032
REM REPLAYGAIN_TRACK_GAIN 1.85 dB
REM REPLAYGAIN_TRACK_PEAK 0.677368
INDEX 01 00:00:00
FILE "03 Piano Concerto No.20 in D minor, K.466 - 3. Rondo (Allegro assai).flac" WAVE
TRACK 03 AUDIO
TITLE "Piano Concerto No.20 in D minor, K.466 - 3. Rondo (Allegro assai)"
SONGWRITER "Wolfgang Amadeus Mozart/Wolfgang Amadeus Mozart/Mozart, Wolfgang Amadeus [Composer]"
ISRC DEN961201033
REM REPLAYGAIN_TRACK_GAIN 1.05 dB
REM REPLAYGAIN_TRACK_PEAK 0.979919
INDEX 01 00:00:00
FILE "04 Piano Concerto No.21 in C, K.467 - 1. Allegro maestoso.flac" WAVE
TRACK 04 AUDIO
TITLE "Piano Concerto No.21 in C, K.467 - 1. Allegro maestoso"
SONGWRITER "Wolfgang Amadeus Mozart/Wolfgang Amadeus Mozart/Mozart, Wolfgang Amadeus [Composer]"
ISRC DEN961201041
REM REPLAYGAIN_TRACK_GAIN 1.63 dB
REM REPLAYGAIN_TRACK_PEAK 0.784698
INDEX 01 00:00:00
FILE "05 Piano Concerto No.21 in C, K.467 - 2. Andante.flac" WAVE
TRACK 05 AUDIO
TITLE "Piano Concerto No.21 in C, K.467 - 2. Andante"
SONGWRITER "Wolfgang Amadeus Mozart/Wolfgang Amadeus Mozart/Mozart, Wolfgang Amadeus [Composer]"
ISRC DEN961201042
REM REPLAYGAIN_TRACK_GAIN 6.36 dB
REM REPLAYGAIN_TRACK_PEAK 0.379181
INDEX 01 00:00:00
FILE "06 Piano Concerto No.21 in C, K.467 - 3. Allegro vivace assai.flac" WAVE
TRACK 06 AUDIO
TITLE "Piano Concerto No.21 in C, K.467 - 3. Allegro vivace assai"
SONGWRITER "Wolfgang Amadeus Mozart/Wolfgang Amadeus Mozart/Mozart, Wolfgang Amadeus [Composer]"
ISRC DEN961201043
REM REPLAYGAIN_TRACK_GAIN 2.06 dB
REM REPLAYGAIN_TRACK_PEAK 0.912659
INDEX 01 00:00:00
-
[teatrix.ru].t22571.torrent 
Торрент: Зарегистрирован [ 2016-03-21 00:31 ] · 8803E2A2D51E8FB32222CE9AB4097177E741DBC0

Скачать .torrent

Скачать

18 KB

Статус: проверено
Скачан: 1 раз
Размер: 212 MB
terms.php



Быстрый ответ

Имя:

      
Для отправки сообщений необходимо включить JavaScript
Показать сообщения:    

Текущее время: 07-Дек 21:24

Часовой пояс: UTC + 3


Вы можете начинать темы
Вы можете отвечать на сообщения
Вы не можете редактировать свои сообщения
Вы не можете удалять свои сообщения
Вы не можете голосовать в опросах
Вы не можете прикреплять файлы к сообщениям
Вы можете скачивать файлы