(Classical) Wolfgang Amadeus Mozart — Piano Concertos № 17 & 20 (K 452 & 466) (Leif Ove Andsnes) — 2008, FLAC (tracks+.cue) lossless


Статистика раздачи [Обновить пиров]
Размер:  199 MB   |    Зарегистрирован:  8 месяцев 19 дней   |    Скачан:  0 раз

Полного источника не было: Никогда

 
   
 
 
 

[Цитировать]

Piano Concertos № 17 & 20 (K 452 & 466)-
Жанр: Classical
Страна-производитель диска: Великобритания
Год издания диска: 2008
Издатель (лейбл): EMI Classics
Номер по каталогу: 50999 5 00281 2 2
Композитор: Wolfgang Amadeus Mozart
Аудио кодек: flac
Тип рипа: tracks+.cue
Битрейт аудио: lossless
Продолжительность: 00h57'59"
Источник: What.CD
Наличие сканов в содержимом раздачи: нет-Треклист:
Piano Concerto № 17 G-Dur K 452
01. I. Allegro [11'34"]
02. II. Andante [09'20"]
03. III. Allegretto [07'19"]
Piano Concerto № 20 d-moll K 466
04. I. Allegro [14'00"]
05. II. Romanze [08'19"]
06. III. Rondeau: Allegro Assai [07'27"]-Norwegian Chamber Orchestra, cond. Leif Ove Andsnes, Piano – Leif Ove Andsnes-

XLD log

X Lossless Decoder version 20141129a (148.2)
[br]
XLD extraction logfile from 2015-10-11 21:24:16 -0700
[br]
Leif Ove Andsnes with the Norwegian Chamber Orchestra / Piano Concertos 17 & 20
[br]
Used drive : HL-DT-ST DVDRW  GS21N (revision SA17)
Media type : Pressed CD
[br]
Ripper mode             : XLD Secure Ripper
Disable audio cache     : OK for the drive with a cache less than 1375KiB
Make use of C2 pointers : NO
Read offset correction  : 667
Max retry count         : 100
Gap status              : Analyzed, Appended (except HTOA)
[br]
TOC of the extracted CD
Track |   Start  |  Length  | Start sector | End sector
---------------------------------------------------------
1  | 00:00:00 | 11:34:34 |         0    |    52083
2  | 11:34:34 | 09:19:57 |     52084    |    94065
3  | 20:54:16 | 07:18:43 |     94066    |   126958
4  | 28:12:59 | 14:00:02 |    126959    |   189960
5  | 42:12:61 | 08:19:29 |    189961    |   227414
6  | 50:32:15 | 07:27:06 |    227415    |   260945
[br]
AccurateRip Summary (DiscID: 000e8487-004cd470-510d9706)
Track 01 : OK (v1+v2, confidence 26/26)
Track 02 : OK (v1+v2, confidence 26/26)
Track 03 : OK (v1+v2, confidence 25/25)
Track 04 : OK (v1+v2, confidence 25/25)
Track 05 : OK (v1+v2, confidence 25/25)
Track 06 : OK (v1+v2, confidence 26/26)
->All tracks accurately ripped.
[br]
All Tracks
Album gain               : 3.06 dB
Peak                     : 0.987671
Statistics
Read error                           : 0
Jitter error (maybe fixed)           : 0
Retry sector count                   : 0
Damaged sector count                 : 0
[br]
Track 01
Filename : /Users/Shared/Leif Ove Andsnes with the Norwegian Chamber Orchestra - Piano Concertos 17 & 20 [MP3 320]/01 K. 453 - 1. Allegro (cad. Mozart).mp3
/Users/Shared/Leif Ove Andsnes with the Norwegian Chamber Orchestra - Piano Concertos 17 & 20 [MP3 V0]/01 K. 453 - 1. Allegro (cad. Mozart).mp3
/Users/Shared/Leif Ove Andsnes with the Norwegian Chamber Orchestra - Piano Concertos 17 & 20 [MP3 V2]/01 K. 453 - 1. Allegro (cad. Mozart).mp3
/Users/Shared/Leif Ove Andsnes with the Norwegian Chamber Orchestra - Piano Concertos 17 & 20 [FLAC]/01 K. 453 - 1. Allegro (cad. Mozart).flac
Pre-gap length : 00:02:00
[br]
Track gain               : 2.39 dB
Peak                     : 0.680145
CRC32 hash (test run)    : 25D1B743
CRC32 hash               : 25D1B743
CRC32 hash (skip zero)   : 4AFAC88F
AccurateRip v1 signature : C105B4BD
AccurateRip v2 signature : F37EE9EA
->Accurately ripped (v1+v2, confidence 10+16/26)
Statistics
Read error                           : 0
Jitter error (maybe fixed)           : 0
Retry sector count                   : 0
Damaged sector count                 : 0
[br]
Track 02
Filename : /Users/Shared/Leif Ove Andsnes with the Norwegian Chamber Orchestra - Piano Concertos 17 & 20 [MP3 320]/02 K. 453 - 2. Andante (cad. Mozart).mp3
/Users/Shared/Leif Ove Andsnes with the Norwegian Chamber Orchestra - Piano Concertos 17 & 20 [MP3 V0]/02 K. 453 - 2. Andante (cad. Mozart).mp3
/Users/Shared/Leif Ove Andsnes with the Norwegian Chamber Orchestra - Piano Concertos 17 & 20 [MP3 V2]/02 K. 453 - 2. Andante (cad. Mozart).mp3
/Users/Shared/Leif Ove Andsnes with the Norwegian Chamber Orchestra - Piano Concertos 17 & 20 [FLAC]/02 K. 453 - 2. Andante (cad. Mozart).flac
[br]
Track gain               : 6.07 dB
Peak                     : 0.547668
CRC32 hash (test run)    : 94896A0D
CRC32 hash               : 94896A0D
CRC32 hash (skip zero)   : D0B140A0
AccurateRip v1 signature : E993DC3A
AccurateRip v2 signature : FCB86E56
->Accurately ripped (v1+v2, confidence 10+16/26)
Statistics
Read error                           : 0
Jitter error (maybe fixed)           : 0
Retry sector count                   : 0
Damaged sector count                 : 0
[br]
Track 03
Filename : /Users/Shared/Leif Ove Andsnes with the Norwegian Chamber Orchestra - Piano Concertos 17 & 20 [MP3 320]/03 K. 453 - 3. Allegretto.mp3
/Users/Shared/Leif Ove Andsnes with the Norwegian Chamber Orchestra - Piano Concertos 17 & 20 [MP3 V0]/03 K. 453 - 3. Allegretto.mp3
/Users/Shared/Leif Ove Andsnes with the Norwegian Chamber Orchestra - Piano Concertos 17 & 20 [MP3 V2]/03 K. 453 - 3. Allegretto.mp3
/Users/Shared/Leif Ove Andsnes with the Norwegian Chamber Orchestra - Piano Concertos 17 & 20 [FLAC]/03 K. 453 - 3. Allegretto.flac
[br]
Track gain               : 2.38 dB
Peak                     : 0.743683
CRC32 hash (test run)    : 855523EC
CRC32 hash               : 855523EC
CRC32 hash (skip zero)   : 594352DB
AccurateRip v1 signature : 7BAE5CC5
AccurateRip v2 signature : 0A4522D1
->Accurately ripped (v1+v2, confidence 9+16/25)
Statistics
Read error                           : 0
Jitter error (maybe fixed)           : 0
Retry sector count                   : 0
Damaged sector count                 : 0
[br]
Track 04
Filename : /Users/Shared/Leif Ove Andsnes with the Norwegian Chamber Orchestra - Piano Concertos 17 & 20 [MP3 320]/04 K. 466 - 1. Allegro (cad. Beethoven arr. Fischer).mp3
/Users/Shared/Leif Ove Andsnes with the Norwegian Chamber Orchestra - Piano Concertos 17 & 20 [MP3 V0]/04 K. 466 - 1. Allegro (cad. Beethoven arr. Fischer).mp3
/Users/Shared/Leif Ove Andsnes with the Norwegian Chamber Orchestra - Piano Concertos 17 & 20 [MP3 V2]/04 K. 466 - 1. Allegro (cad. Beethoven arr. Fischer).mp3
/Users/Shared/Leif Ove Andsnes with the Norwegian Chamber Orchestra - Piano Concertos 17 & 20 [FLAC]/04 K. 466 - 1. Allegro (cad. Beethoven arr. Fischer).flac
Pre-gap length : 00:10:24
[br]
Track gain               : 2.96 dB
Peak                     : 0.946899
CRC32 hash (test run)    : 843A33A1
CRC32 hash               : 843A33A1
CRC32 hash (skip zero)   : 16B0A466
AccurateRip v1 signature : E09DB63B
AccurateRip v2 signature : 14F65690
->Accurately ripped (v1+v2, confidence 9+16/25)
Statistics
Read error                           : 0
Jitter error (maybe fixed)           : 0
Retry sector count                   : 0
Damaged sector count                 : 0
[br]
Track 05
Filename : /Users/Shared/Leif Ove Andsnes with the Norwegian Chamber Orchestra - Piano Concertos 17 & 20 [MP3 320]/05 K. 466 - 2. Romanze.mp3
/Users/Shared/Leif Ove Andsnes with the Norwegian Chamber Orchestra - Piano Concertos 17 & 20 [MP3 V0]/05 K. 466 - 2. Romanze.mp3
/Users/Shared/Leif Ove Andsnes with the Norwegian Chamber Orchestra - Piano Concertos 17 & 20 [MP3 V2]/05 K. 466 - 2. Romanze.mp3
/Users/Shared/Leif Ove Andsnes with the Norwegian Chamber Orchestra - Piano Concertos 17 & 20 [FLAC]/05 K. 466 - 2. Romanze.flac
[br]
Track gain               : 4.06 dB
Peak                     : 0.601044
CRC32 hash (test run)    : 8DDFE745
CRC32 hash               : 8DDFE745
CRC32 hash (skip zero)   : C420D5A5
AccurateRip v1 signature : 47A23CAF
AccurateRip v2 signature : 4BDFD8D9
->Accurately ripped (v1+v2, confidence 9+16/25)
Statistics
Read error                           : 0
Jitter error (maybe fixed)           : 0
Retry sector count                   : 0
Damaged sector count                 : 0
[br]
Track 06
Filename : /Users/Shared/Leif Ove Andsnes with the Norwegian Chamber Orchestra - Piano Concertos 17 & 20 [MP3 320]/06 K. 466 - 3. Rondeau. Allegro assai (cad. Andsnes).mp3
/Users/Shared/Leif Ove Andsnes with the Norwegian Chamber Orchestra - Piano Concertos 17 & 20 [MP3 V0]/06 K. 466 - 3. Rondeau. Allegro assai (cad. Andsnes).mp3
/Users/Shared/Leif Ove Andsnes with the Norwegian Chamber Orchestra - Piano Concertos 17 & 20 [MP3 V2]/06 K. 466 - 3. Rondeau. Allegro assai (cad. Andsnes).mp3
/Users/Shared/Leif Ove Andsnes with the Norwegian Chamber Orchestra - Piano Concertos 17 & 20 [FLAC]/06 K. 466 - 3. Rondeau. Allegro assai (cad. Andsnes).flac
[br]
Track gain               : 1.98 dB
Peak                     : 0.987671
CRC32 hash (test run)    : CE754157
CRC32 hash               : CE754157
CRC32 hash (skip zero)   : 03751410
AccurateRip v1 signature : 3B9B8166
AccurateRip v2 signature : 09186C8F
->Accurately ripped (v1+v2, confidence 10+16/26)
Statistics
Read error                           : 0
Jitter error (maybe fixed)           : 0
Retry sector count                   : 0
Damaged sector count                 : 0
[br]
No errors occurred
[br]
End of status report
[br]
-----BEGIN XLD SIGNATURE-----
s5DN8Gk_lIgSlGsHOlUFL.ViNVwtch8qGOMggAgnOSIxekmcY7BpgKCjnsyutNsFycwozKDBv.x2R0LfmRr.do6hljvSxWYoIP7Hu_q
-----END XLD SIGNATURE-----
-

CUE

TITLE "Piano Concertos 17 & 20"
PERFORMER "Leif Ove Andsnes with the Norwegian Chamber Orchestra"
REM GENRE "Classical"
REM DATE "2008"
REM DISCID 510D9706
REM REPLAYGAIN_ALBUM_GAIN 3.06 dB
REM REPLAYGAIN_ALBUM_PEAK 0.987671
FILE "01 K. 453 - 1. Allegro (cad. Mozart).flac" WAVE
TRACK 01 AUDIO
TITLE "K. 453 - 1. Allegro (cad. Mozart)"
SONGWRITER "Wolfgang Amadeus Mozart"
ISRC GBAYC0703224
REM REPLAYGAIN_TRACK_GAIN 2.39 dB
REM REPLAYGAIN_TRACK_PEAK 0.680145
INDEX 01 00:00:00
FILE "02 K. 453 - 2. Andante (cad. Mozart).flac" WAVE
TRACK 02 AUDIO
TITLE "K. 453 - 2. Andante (cad. Mozart)"
SONGWRITER "Wolfgang Amadeus Mozart"
ISRC GBAYC0703225
REM REPLAYGAIN_TRACK_GAIN 6.07 dB
REM REPLAYGAIN_TRACK_PEAK 0.547668
INDEX 01 00:00:00
FILE "03 K. 453 - 3. Allegretto.flac" WAVE
TRACK 03 AUDIO
TITLE "K. 453 - 3. Allegretto"
SONGWRITER "Wolfgang Amadeus Mozart"
ISRC GBAYC0703226
REM REPLAYGAIN_TRACK_GAIN 2.38 dB
REM REPLAYGAIN_TRACK_PEAK 0.743683
INDEX 01 00:00:00
TRACK 04 AUDIO
TITLE "K. 466 - 1. Allegro (cad. Beethoven arr. Fischer)"
SONGWRITER "Wolfgang Amadeus Mozart"
ISRC GBAYC0703228
REM REPLAYGAIN_TRACK_GAIN 2.96 dB
REM REPLAYGAIN_TRACK_PEAK 0.946899
INDEX 00 07:08:19
FILE "04 K. 466 - 1. Allegro (cad. Beethoven arr. Fischer).flac" WAVE
INDEX 01 00:00:00
FILE "05 K. 466 - 2. Romanze.flac" WAVE
TRACK 05 AUDIO
TITLE "K. 466 - 2. Romanze"
SONGWRITER "Wolfgang Amadeus Mozart"
ISRC GBAYC0703229
REM REPLAYGAIN_TRACK_GAIN 4.06 dB
REM REPLAYGAIN_TRACK_PEAK 0.601044
INDEX 01 00:00:00
FILE "06 K. 466 - 3. Rondeau. Allegro assai (cad. Andsnes).flac" WAVE
TRACK 06 AUDIO
TITLE "K. 466 - 3. Rondeau. Allegro assai (cad. Andsnes)"
SONGWRITER "Wolfgang Amadeus Mozart"
ISRC GBAYC0703230
REM REPLAYGAIN_TRACK_GAIN 1.98 dB
REM REPLAYGAIN_TRACK_PEAK 0.987671
INDEX 01 00:00:00
-
[teatrix.ru].t22572.torrent 
Торрент: Зарегистрирован [ 2016-03-21 00:31 ] · F5421A72E77E48BE4B63811B195C515CBF52B5C9

Скачать .torrent

Скачать

17 KB

Статус: проверено
Скачан: 0 раз
Размер: 199 MB
terms.php



Быстрый ответ

Имя:

      
Для отправки сообщений необходимо включить JavaScript
Показать сообщения:    

Текущее время: 09-Дек 16:35

Часовой пояс: UTC + 3


Вы можете начинать темы
Вы можете отвечать на сообщения
Вы не можете редактировать свои сообщения
Вы не можете удалять свои сообщения
Вы не можете голосовать в опросах
Вы не можете прикреплять файлы к сообщениям
Вы можете скачивать файлы