(Classical) Wolfgang Amadeus Mozart — Piano Concertos № 20 & 23 (K 466 & 488) (Lars Vogt, Ivor Bolton) — 2009, FLAC (tracks+.cue) lossless


Статистика раздачи [Обновить пиров]
Размер:  239 MB   |    Зарегистрирован:  8 месяцев 14 дней   |    Скачан:  1 раз

Полного источника не было: 3 месяца 17 дней

 
   
 
 
 

[Цитировать]

Piano Concertos № 20 & 23 (K 466 & 488)-
Жанр: Classical
Страна-производитель диска: Германия
Год издания диска: 2009
Год записи фонограммы: 2008
Издатель (лейбл): Oehms Classics
Номер по каталогу: OC 727 / LC 12424
Композитор: Wolfgang Amadeus Mozart
Аудио кодек: flac
Тип рипа: tracks+.cue
Битрейт аудио: lossless
Продолжительность: 00h56'14"
Источник: What.CD
Наличие сканов в содержимом раздачи: нет-Треклист:
Piano Concerto № 20 d-moll K 466
01. I. Allegro [13'57"]
02. II. Romanze [08'39"]
03. III. Rondeau: Allegro Assai [07'29"]
Piano Concerto № 23 A-Dur K 488
04. I. Allegro [11'02"]
05. II. Adagio [06'34"]
06. III. Allegro Assai [08'33"]-Mozarteum Orchestra Salzburg, cond. Ivor Bolton, Piano – Lars Vogt-

XLD log

X Lossless Decoder version 20141129a (148.2)
[br]
XLD extraction logfile from 2015-10-10 20:17:54 -0700
[br]
Lars Vogt / Piano Concertos Nos. 20 & 23
[br]
Used drive : HL-DT-ST DVDRW  GS21N (revision SA17)
Media type : Pressed CD
[br]
Ripper mode             : XLD Secure Ripper
Disable audio cache     : OK for the drive with a cache less than 1375KiB
Make use of C2 pointers : NO
Read offset correction  : 667
Max retry count         : 100
Gap status              : Analyzed, Appended (except HTOA)
[br]
TOC of the extracted CD
Track |   Start  |  Length  | Start sector | End sector
---------------------------------------------------------
1  | 00:00:00 | 13:57:08 |         0    |    62782
2  | 13:57:08 | 08:38:72 |     62783    |   101704
3  | 22:36:05 | 07:29:23 |    101705    |   135402
4  | 30:05:28 | 11:01:54 |    135403    |   185031
5  | 41:07:07 | 06:33:72 |    185032    |   214578
6  | 47:41:04 | 08:32:61 |    214579    |   253039
[br]
AccurateRip Summary (DiscID: 000e88de-004ba030-5f0d2d06)
Track 01 : OK (v1+v2, confidence 5/5)
Track 02 : OK (v1+v2, confidence 5/5)
Track 03 : OK (v1+v2, confidence 5/5)
Track 04 : OK (v1+v2, confidence 5/5)
Track 05 : OK (v1+v2, confidence 5/5)
Track 06 : OK (v1+v2, confidence 5/5)
->All tracks accurately ripped.
[br]
All Tracks
Album gain               : 0.83 dB
Peak                     : 0.951660
Statistics
Read error                           : 0
Jitter error (maybe fixed)           : 0
Retry sector count                   : 0
Damaged sector count                 : 0
[br]
Track 01
Filename : /Users/Shared/Lars Vogt - Piano Concertos Nos. 20 & 23 [MP3 320]/01 KV 466 - I. Allegro.mp3
/Users/Shared/Lars Vogt - Piano Concertos Nos. 20 & 23 [MP3 V0]/01 KV 466 - I. Allegro.mp3
/Users/Shared/Lars Vogt - Piano Concertos Nos. 20 & 23 [MP3 V2]/01 KV 466 - I. Allegro.mp3
/Users/Shared/Lars Vogt - Piano Concertos Nos. 20 & 23 [FLAC]/01 KV 466 - I. Allegro.flac
Pre-gap length : 00:02:00
[br]
Track gain               : 1.45 dB
Peak                     : 0.949951
CRC32 hash (test run)    : 532E0FB6
CRC32 hash               : 532E0FB6
CRC32 hash (skip zero)   : 50E7DA79
AccurateRip v1 signature : 32A80BB8
AccurateRip v2 signature : FF638747
->Accurately ripped (v1+v2, confidence 2+3/5)
Statistics
Read error                           : 0
Jitter error (maybe fixed)           : 0
Retry sector count                   : 0
Damaged sector count                 : 0
[br]
Track 02
Filename : /Users/Shared/Lars Vogt - Piano Concertos Nos. 20 & 23 [MP3 320]/02 KV 466 - II. Romanze.mp3
/Users/Shared/Lars Vogt - Piano Concertos Nos. 20 & 23 [MP3 V0]/02 KV 466 - II. Romanze.mp3
/Users/Shared/Lars Vogt - Piano Concertos Nos. 20 & 23 [MP3 V2]/02 KV 466 - II. Romanze.mp3
/Users/Shared/Lars Vogt - Piano Concertos Nos. 20 & 23 [FLAC]/02 KV 466 - II. Romanze.flac
[br]
Track gain               : 3.80 dB
Peak                     : 0.580261
CRC32 hash (test run)    : 8BE1CDA2
CRC32 hash               : 8BE1CDA2
CRC32 hash (skip zero)   : 4871DEED
AccurateRip v1 signature : 07DFB8C7
AccurateRip v2 signature : 69E367FB
->Accurately ripped (v1+v2, confidence 2+3/5)
Statistics
Read error                           : 0
Jitter error (maybe fixed)           : 0
Retry sector count                   : 0
Damaged sector count                 : 0
[br]
Track 03
Filename : /Users/Shared/Lars Vogt - Piano Concertos Nos. 20 & 23 [MP3 320]/03 KV 466 - III. Rondo, Allegro assai.mp3
/Users/Shared/Lars Vogt - Piano Concertos Nos. 20 & 23 [MP3 V0]/03 KV 466 - III. Rondo, Allegro assai.mp3
/Users/Shared/Lars Vogt - Piano Concertos Nos. 20 & 23 [MP3 V2]/03 KV 466 - III. Rondo, Allegro assai.mp3
/Users/Shared/Lars Vogt - Piano Concertos Nos. 20 & 23 [FLAC]/03 KV 466 - III. Rondo, Allegro assai.flac
[br]
Track gain               : 0.34 dB
Peak                     : 0.949982
CRC32 hash (test run)    : 4E72875D
CRC32 hash               : 4E72875D
CRC32 hash (skip zero)   : 07961BDA
AccurateRip v1 signature : F917BD10
AccurateRip v2 signature : FCCCCE6B
->Accurately ripped (v1+v2, confidence 2+3/5)
Statistics
Read error                           : 0
Jitter error (maybe fixed)           : 0
Retry sector count                   : 0
Damaged sector count                 : 0
[br]
Track 04
Filename : /Users/Shared/Lars Vogt - Piano Concertos Nos. 20 & 23 [MP3 320]/04 KV 488 - I. Allegro.mp3
/Users/Shared/Lars Vogt - Piano Concertos Nos. 20 & 23 [MP3 V0]/04 KV 488 - I. Allegro.mp3
/Users/Shared/Lars Vogt - Piano Concertos Nos. 20 & 23 [MP3 V2]/04 KV 488 - I. Allegro.mp3
/Users/Shared/Lars Vogt - Piano Concertos Nos. 20 & 23 [FLAC]/04 KV 488 - I. Allegro.flac
Pre-gap length : 00:09:35
[br]
Track gain               : 0.60 dB
Peak                     : 0.898071
CRC32 hash (test run)    : 245DD10A
CRC32 hash               : 245DD10A
CRC32 hash (skip zero)   : D05E6A8A
AccurateRip v1 signature : E985423F
AccurateRip v2 signature : 63922EFA
->Accurately ripped (v1+v2, confidence 2+3/5)
Statistics
Read error                           : 0
Jitter error (maybe fixed)           : 0
Retry sector count                   : 0
Damaged sector count                 : 0
[br]
Track 05
Filename : /Users/Shared/Lars Vogt - Piano Concertos Nos. 20 & 23 [MP3 320]/05 KV 488 - II. Adagio.mp3
/Users/Shared/Lars Vogt - Piano Concertos Nos. 20 & 23 [MP3 V0]/05 KV 488 - II. Adagio.mp3
/Users/Shared/Lars Vogt - Piano Concertos Nos. 20 & 23 [MP3 V2]/05 KV 488 - II. Adagio.mp3
/Users/Shared/Lars Vogt - Piano Concertos Nos. 20 & 23 [FLAC]/05 KV 488 - II. Adagio.flac
[br]
Track gain               : 4.48 dB
Peak                     : 0.473206
CRC32 hash (test run)    : 81C361AA
CRC32 hash               : 81C361AA
CRC32 hash (skip zero)   : A51631CF
AccurateRip v1 signature : A4A31540
AccurateRip v2 signature : 4251B12C
->Accurately ripped (v1+v2, confidence 2+3/5)
Statistics
Read error                           : 0
Jitter error (maybe fixed)           : 0
Retry sector count                   : 0
Damaged sector count                 : 0
[br]
Track 06
Filename : /Users/Shared/Lars Vogt - Piano Concertos Nos. 20 & 23 [MP3 320]/06 KV 488 - III. Allegro assai.mp3
/Users/Shared/Lars Vogt - Piano Concertos Nos. 20 & 23 [MP3 V0]/06 KV 488 - III. Allegro assai.mp3
/Users/Shared/Lars Vogt - Piano Concertos Nos. 20 & 23 [MP3 V2]/06 KV 488 - III. Allegro assai.mp3
/Users/Shared/Lars Vogt - Piano Concertos Nos. 20 & 23 [FLAC]/06 KV 488 - III. Allegro assai.flac
[br]
Track gain               : -1.17 dB
Peak                     : 0.951660
CRC32 hash (test run)    : FC659C9F
CRC32 hash               : FC659C9F
CRC32 hash (skip zero)   : E33B8A1F
AccurateRip v1 signature : CC873A38
AccurateRip v2 signature : 65B96FBE
->Accurately ripped (v1+v2, confidence 2+3/5)
Statistics
Read error                           : 0
Jitter error (maybe fixed)           : 0
Retry sector count                   : 0
Damaged sector count                 : 0
[br]
No errors occurred
[br]
End of status report
[br]
-----BEGIN XLD SIGNATURE-----
oMO93JxpBNkVdeb2u4qrwgSIOs_h_Z1evDEfKJAvKzCl7hMn2ME0tT6FJ5tIIZx3MnWA6GMlGaqJaJp0mmM6N.rl24flIS6nO99tCBq
-----END XLD SIGNATURE-----
-

CUE

TITLE "Piano Concertos Nos. 20 & 23"
PERFORMER "Lars Vogt"
CATALOG 4260034867277
REM GENRE "Classical"
REM DATE "2009"
REM DISCID 5F0D2D06
REM REPLAYGAIN_ALBUM_GAIN 0.83 dB
REM REPLAYGAIN_ALBUM_PEAK 0.951660
FILE "01 KV 466 - I. Allegro.flac" WAVE
TRACK 01 AUDIO
TITLE "KV 466 - I. Allegro"
SONGWRITER "Wolfgang Amadeus Mozart"
ISRC DEU920872701
FLAGS DCP
REM COMMENT "Recorded live in 2008 with the Mozarteum Orchester Salzburg, led by Ivor Bolton."
REM REPLAYGAIN_TRACK_GAIN 1.45 dB
REM REPLAYGAIN_TRACK_PEAK 0.949951
INDEX 01 00:00:00
FILE "02 KV 466 - II. Romanze.flac" WAVE
TRACK 02 AUDIO
TITLE "KV 466 - II. Romanze"
SONGWRITER "Wolfgang Amadeus Mozart"
ISRC DEU920872702
FLAGS DCP
REM COMMENT "Recorded live in 2008 with the Mozarteum Orchester Salzburg, led by Ivor Bolton."
REM REPLAYGAIN_TRACK_GAIN 3.80 dB
REM REPLAYGAIN_TRACK_PEAK 0.580261
INDEX 01 00:00:00
FILE "03 KV 466 - III. Rondo, Allegro assai.flac" WAVE
TRACK 03 AUDIO
TITLE "KV 466 - III. Rondo, Allegro assai"
SONGWRITER "Wolfgang Amadeus Mozart"
ISRC DEU920872703
FLAGS DCP
REM COMMENT "Recorded live in 2008 with the Mozarteum Orchester Salzburg, led by Ivor Bolton."
REM REPLAYGAIN_TRACK_GAIN 0.34 dB
REM REPLAYGAIN_TRACK_PEAK 0.949982
INDEX 01 00:00:00
TRACK 04 AUDIO
TITLE "KV 488 - I. Allegro"
SONGWRITER "Wolfgang Amadeus Mozart"
ISRC DEU920872704
FLAGS DCP
REM COMMENT "Recorded live in 2008 with the Mozarteum Orchester Salzburg, led by Ivor Bolton."
REM REPLAYGAIN_TRACK_GAIN 0.60 dB
REM REPLAYGAIN_TRACK_PEAK 0.898071
INDEX 00 07:19:63
FILE "04 KV 488 - I. Allegro.flac" WAVE
INDEX 01 00:00:00
FILE "05 KV 488 - II. Adagio.flac" WAVE
TRACK 05 AUDIO
TITLE "KV 488 - II. Adagio"
SONGWRITER "Wolfgang Amadeus Mozart"
ISRC DEU920872705
FLAGS DCP
REM COMMENT "Recorded live in 2008 with the Mozarteum Orchester Salzburg, led by Ivor Bolton."
REM REPLAYGAIN_TRACK_GAIN 4.48 dB
REM REPLAYGAIN_TRACK_PEAK 0.473206
INDEX 01 00:00:00
FILE "06 KV 488 - III. Allegro assai.flac" WAVE
TRACK 06 AUDIO
TITLE "KV 488 - III. Allegro assai"
SONGWRITER "Wolfgang Amadeus Mozart"
ISRC DEU920872706
FLAGS DCP
REM COMMENT "Recorded live in 2008 with the Mozarteum Orchester Salzburg, led by Ivor Bolton."
REM REPLAYGAIN_TRACK_GAIN -1.17 dB
REM REPLAYGAIN_TRACK_PEAK 0.951660
INDEX 01 00:00:00
-
[teatrix.ru].t22573.torrent 
Торрент: Зарегистрирован [ 2016-03-21 00:31 ] · A79C00D9C7774FCF55550CE0C6E16D78E05410BD

Скачать .torrent

Скачать

20 KB

Статус: проверено
Скачан: 1 раз
Размер: 239 MB
terms.php



Быстрый ответ

Имя:

      
Для отправки сообщений необходимо включить JavaScript
Показать сообщения:    

Текущее время: 04-Дек 06:57

Часовой пояс: UTC + 3


Вы можете начинать темы
Вы можете отвечать на сообщения
Вы не можете редактировать свои сообщения
Вы не можете удалять свои сообщения
Вы не можете голосовать в опросах
Вы не можете прикреплять файлы к сообщениям
Вы можете скачивать файлы