(Classical) Wolfgang Amadeus Mozart — Piano Concertos № 8 & 9 (K 246 & 271) (Per Tengstrand, Levon Chilingirian) — 2001, FLAC (tracks+.cue) lossless


Статистика раздачи [Обновить пиров]
Размер:  237 MB   |    Зарегистрирован:  10 месяцев 2 дня   |    Скачан:  1 раз
Сидов:  2  [  0 KB/s  ]   Подробная статистика пиров
 
   
 
 
 

[Цитировать]

Piano Concertos № 8 & 9 (K 246 & 271)-
Жанр: Classical
Страна-производитель диска: Швеция
Год издания диска: 2001
Издатель (лейбл): dB Productions
Номер по каталогу: dBCD67
Композитор: Wolfgang Amadeus Mozart
Аудио кодек: flac
Тип рипа: tracks+.cue
Битрейт аудио: lossless
Продолжительность: 00h53'36"
Источник: What.CD
Наличие сканов в содержимом раздачи: нет-Треклист:
Piano Concerto № 9 Es-Dur K 271 «Jeunehomme»
01. I. Allegro [10'05"]
02. II. Andantino [11'26"]
03. III. Rondeau [10'02"]
Piano Concerto № 8 C-Dur K 246 «Lutzow»
04. I. Allegro aperto [07'06"]
05. II. Andante [07'45"]
06. III. Rondeau: Tempo di minuetto [07'10"]-Camerata Romana, cond. Levon Chilingirian, Piano – Per Tengstrand-

EAC log

Exact Audio Copy V1.1 from 23. June 2015
[br]
EAC extraction logfile from 7. October 2015, 6:36
[br]
Per Tengstrand / Wolfgang Amadeus Mozart Piano Concertos 8 & 9
[br]
Used drive  : MATSHITAUJ-842D   Adapter: 1  ID: 0
[br]
Read mode               : Secure
Utilize accurate stream : Yes
Defeat audio cache      : Yes
Make use of C2 pointers : No
[br]
Read offset correction                      : 102
Overread into Lead-In and Lead-Out          : No
Fill up missing offset samples with silence : Yes
Delete leading and trailing silent blocks   : No
Null samples used in CRC calculations       : Yes
Used interface                              : Native Win32 interface for Win NT & 2000
Gap handling                                : Appended to previous track
[br]
Used output format              : User Defined Encoder
Selected bitrate                : 1024 kBit/s
Quality                         : High
Add ID3 tag                     : No
Command line compressor         : C:\Program Files\Exact Audio Copy\Flac\flac.exe
Additional command line options : -8 -V -T "ARTIST=%artist%" -T "TITLE=%title%" -T "ALBUM=%albumtitle%" -T "DATE=%year%" -T "TRACKNUMBER=%tracknr%" -T "GENRE=%genre%" -T "PERFORMER=%albuminterpret%" -T "COMPOSER=%composer%" %haslyrics%--tag-from-file=LYRICS="%lyricsfile%"%haslyrics% -T "ALBUMARTIST=%albumartist%" -T "DISCNUMBER=%cdnumber%" -T "TOTALDISCS=%totalcds%" -T "TOTALTRACKS=%numtracks%" -T "COMMENT=%comment%" %source% -o %dest%
[br]
TOC of the extracted CD
[br]
Track |   Start  |  Length  | Start sector | End sector
---------------------------------------------------------
1  |  0:00.00 | 10:05.29 |         0    |    45403
2  | 10:05.29 | 11:25.44 |     45404    |    96822
3  | 21:30.73 | 10:02.45 |     96823    |   142017
4  | 31:33.43 |  7:06.32 |    142018    |   173999
5  | 38:40.00 |  7:45.45 |    174000    |   208919
6  | 46:25.45 |  7:10.35 |    208920    |   241204
[br]
Track  1
[br]
Filename Z:\rips\01 - Piano concerto 9 E flat major K271 - 1.wav
[br]
Pre-gap length  0:00:02.00
[br]
Peak level 96.9 %
Extraction speed 1.7 X
Track quality 100.0 %
Test CRC E576D21A
Copy CRC E576D21A
Track not present in AccurateRip database
Copy OK
[br]
Track  2
[br]
Filename Z:\rips\02 - Piano concerto 9 E flat major K271 - 2.wav
[br]
Peak level 96.6 %
Extraction speed 2.0 X
Track quality 99.9 %
Test CRC 6E3D073F
Copy CRC 6E3D073F
Track not present in AccurateRip database
Copy OK
[br]
Track  3
[br]
Filename Z:\rips\03 - Piano concerto 9 E flat major K271 - 3.wav
[br]
Peak level 96.8 %
Extraction speed 2.3 X
Track quality 99.9 %
Test CRC 667E0D31
Copy CRC 667E0D31
Track not present in AccurateRip database
Copy OK
[br]
Track  4
[br]
Filename Z:\rips\04 - Piano concerto 8 C  major K246 - 1.wav
[br]
Pre-gap length  0:00:04.00
[br]
Peak level 96.6 %
Extraction speed 2.6 X
Track quality 100.0 %
Test CRC 86032409
Copy CRC 86032409
Track not present in AccurateRip database
Copy OK
[br]
Track  5
[br]
Filename Z:\rips\05 - Piano concerto 8 C  major K246 - 2.wav
[br]
Peak level 96.5 %
Extraction speed 2.8 X
Track quality 100.0 %
Test CRC 95E1DF69
Copy CRC 95E1DF69
Track not present in AccurateRip database
Copy OK
[br]
Track  6
[br]
Filename Z:\rips\06 - Piano concerto 8 C  major K246 - 3.wav
[br]
Peak level 96.5 %
Extraction speed 3.0 X
Track quality 100.0 %
Test CRC 468A876A
Copy CRC 468A876A
Track not present in AccurateRip database
Copy OK
[br]
None of the tracks are present in the AccurateRip database
[br]
No errors occurred
[br]
End of status report
[br]
==== Log checksum 843E64F63DD563F7302CA243C529FEAEAE2A9D1AAC64BDEDDBA3EEBB058AFB30 ====
-

CUE

REM GENRE Classical
REM DATE 2001
REM DISCID 550C9006
REM COMMENT "ExactAudioCopy v1.1"
CATALOG 7393787010670
PERFORMER "Per Tengstrand"
TITLE "Wolfgang Amadeus Mozart Piano Concertos 8 & 9"
FILE "01 - Piano concerto 9 E flat major K271 - 1.wav" WAVE
TRACK 01 AUDIO
TITLE "Piano concerto 9 E flat major K271 - 1"
PERFORMER "Per Tengstrand"
ISRC SETSA0167010
INDEX 01 00:00:00
FILE "02 - Piano concerto 9 E flat major K271 - 2.wav" WAVE
TRACK 02 AUDIO
TITLE "Piano concerto 9 E flat major K271 - 2"
PERFORMER "Per Tengstrand"
ISRC SETSA0167020
INDEX 01 00:00:00
FILE "03 - Piano concerto 9 E flat major K271 - 3.wav" WAVE
TRACK 03 AUDIO
TITLE "Piano concerto 9 E flat major K271 - 3"
PERFORMER "Per Tengstrand"
ISRC SETSA0167030
INDEX 01 00:00:00
TRACK 04 AUDIO
TITLE "Piano concerto 8 C  major K246 - 1"
PERFORMER "Per Tengstrand"
ISRC SETSA0167040
INDEX 00 09:58:45
FILE "04 - Piano concerto 8 C  major K246 - 1.wav" WAVE
INDEX 01 00:00:00
FILE "05 - Piano concerto 8 C  major K246 - 2.wav" WAVE
TRACK 05 AUDIO
TITLE "Piano concerto 8 C  major K246 - 2"
PERFORMER "Per Tengstrand"
ISRC SETSA0167050
INDEX 01 00:00:00
FILE "06 - Piano concerto 8 C  major K246 - 3.wav" WAVE
TRACK 06 AUDIO
TITLE "Piano concerto 8 C  major K246 - 3"
PERFORMER "Per Tengstrand"
ISRC SETSA0167060
INDEX 01 00:00:00
-
[teatrix.ru].t22575.torrent 
Торрент: Зарегистрирован [ 2016-03-21 00:31 ] · B0B34BBB5F888329BC5499FF15A205CDBAAA8417

Скачать .torrent

Скачать

20 KB

Статус: проверено
Скачан: 1 раз
Размер: 237 MB
terms.php



Быстрый ответ

Имя:

      
Для отправки сообщений необходимо включить JavaScript
Показать сообщения:    

Текущее время: 24-Янв 00:02

Часовой пояс: UTC + 3


Вы можете начинать темы
Вы можете отвечать на сообщения
Вы не можете редактировать свои сообщения
Вы не можете удалять свои сообщения
Вы не можете голосовать в опросах
Вы не можете прикреплять файлы к сообщениям
Вы можете скачивать файлы