(Classical) Ludwig van Beethoven — Piano Concerto № 5 & Piano Sonata № 23 (Op 73 & 57) (Alfred Brendel, Zubin Mehta) — 1986, FLAC (tracks+.cue) lossless


Статистика раздачи [Обновить пиров]
Размер:  279 MB   |    Зарегистрирован:  8 месяцев 16 дней   |    Скачан:  1 раз

Полного источника не было: 7 месяцев 4 дня

 
   
 
 
 

[Цитировать]

Piano Concerto № 5 & Piano Sonata № 23 (Op 73 & 57)-
Жанр: Classical
Страна-производитель диска: Нидерланды
Издатель (лейбл): Vox / Turnabout
Номер по каталогу: PVT 7108
Год издания диска: 1986
Композитор: Ludwig van Beethoven
Аудио кодек: flac
Тип рипа: tracks+.cue
Битрейт аудио: lossless
Продолжительность: 01h03'10"
Источник: What.CD
Наличие сканов в содержимом раздачи: да-Треклист:
Piano Concerto № 5 Es-Dur Op 73 «Emperor»
01. I. Allegro [20'08"]
02. II. Adagio un poco mosso [08'34"]
03. III. Rondeau: Allegro [10'35"]
Piano Sonata № 23 f-moll Op 57 «Appassionata»
04. I. Allegro assai [09'40"]
05. II. Andante con moto [06'30"]
06. III. Allegro ma non troppo [07'44"]-Vienna Symphony Orchestra, cond. Zubin Mehta, Piano – Alfred Brendel-

EAC log

Exact Audio Copy V1.0 beta 4 from 7. December 2014
[br]
EAC extraction logfile from 23. October 2015, 20:34
[br]
Ludwig van Beethoven / Emperor Concerto  Appassionata Sonata
[br]
Used drive  : HL-DT-STDVDRAM GH24NSC0   Adapter: 1  ID: 0
[br]
Read mode               : Secure
Utilize accurate stream : Yes
Defeat audio cache      : Yes
Make use of C2 pointers : No
[br]
Read offset correction                      : 6
Overread into Lead-In and Lead-Out          : No
Fill up missing offset samples with silence : Yes
Delete leading and trailing silent blocks   : No
Null samples used in CRC calculations       : Yes
Used interface                              : Native Win32 interface for Win NT & 2000
Gap handling                                : Appended to previous track
[br]
Used output format              : User Defined Encoder
Selected bitrate                : 1024 kBit/s
Quality                         : High
Add ID3 tag                     : No
Command line compressor         : D:\Programs\Exact Audio Copy\Flac\flac.exe
Additional command line options : -8 -V -T "ARTIST=%artist%" -T "TITLE=%title%" -T "ALBUM=%albumtitle%" -T "DATE=%year%" -T "TRACKNUMBER=%tracknr%" -T "GENRE=%genre%" -T "PERFORMER=%albuminterpret%" -T "COMPOSER=%composer%" %haslyrics%--tag-from-file=LYRICS="%lyricsfile%"%haslyrics% -T "ALBUMARTIST=%albumartist%" -T "DISCNUMBER=%cdnumber%" -T "TOTALDISCS=%totalcds%" -T "TOTALTRACKS=%numtracks%" -T "COMMENT=%comment%" %source% -o %dest%
[br]
TOC of the extracted CD
[br]
Track |   Start  |  Length  | Start sector | End sector
---------------------------------------------------------
1  |  0:00.00 | 20:07.50 |         0    |    90574
2  | 20:07.50 |  8:33.45 |     90575    |   129094
3  | 28:41.20 | 10:34.55 |    129095    |   176699
4  | 39:16.00 |  9:39.50 |    176700    |   220174
5  | 48:55.50 |  6:29.57 |    220175    |   249406
6  | 55:25.32 |  7:44.18 |    249407    |   284224
[br]
Track  1
[br]
Filename D:\Music\01. Piano concerto #5 in E-flat Major, Op. 73, Allegro.wav
[br]
Pre-gap length  0:00:02.00
[br]
Peak level 80.9 %
Extraction speed 1.4 X
Track quality 100.0 %
Test CRC A3401E83
Copy CRC A3401E83
Cannot be verified as accurate (confidence 7)  [EDA59EB9], AccurateRip returned [82367425]  (AR v2)
Copy OK
[br]
Track  2
[br]
Filename D:\Music\02. Piano concerto #5 in E-flat Major, Op. 73, Adagio un poco mosso.wav
[br]
Pre-gap length  0:00:05.38
[br]
Peak level 36.8 %
Extraction speed 1.7 X
Track quality 99.9 %
Test CRC 609347F0
Copy CRC 609347F0
Cannot be verified as accurate (confidence 7)  [EB5591B6], AccurateRip returned [79C8F238]  (AR v2)
Copy OK
[br]
Track  3
[br]
Filename D:\Music\03. Piano concerto #5 in E-flat Major, Op. 73, Rondo Allegro.wav
[br]
Peak level 69.4 %
Extraction speed 2.0 X
Track quality 100.0 %
Test CRC 4E018BB8
Copy CRC 4E018BB8
Cannot be verified as accurate (confidence 7)  [CCC5D17E], AccurateRip returned [E59FCB91]  (AR v2)
Copy OK
[br]
Track  4
[br]
Filename D:\Music\04. Piano Sonata #23 in F Minor, Op. 57, Allegro assai.wav
[br]
Pre-gap length  0:00:08.25
[br]
Peak level 89.7 %
Extraction speed 2.0 X
Track quality 99.9 %
Test CRC 8A23FD49
Copy CRC 8A23FD49
Cannot be verified as accurate (confidence 7)  [BDE60EFD], AccurateRip returned [2F5C252D]  (AR v2)
Copy OK
[br]
Track  5
[br]
Filename D:\Music\05. Piano Sonata #23 in F Minor, Op. 57, Andante con moto.wav
[br]
Peak level 78.7 %
Extraction speed 2.1 X
Track quality 99.9 %
Test CRC EB4EE1F0
Copy CRC EB4EE1F0
Cannot be verified as accurate (confidence 7)  [FBE02AAD], AccurateRip returned [8E8409EC]  (AR v2)
Copy OK
[br]
Track  6
[br]
Filename D:\Music\06. Piano Sonata #23 in F Minor, Op. 57, Allegro ma non troppo.wav
[br]
Peak level 88.8 %
Extraction speed 2.4 X
Track quality 100.0 %
Test CRC 34147709
Copy CRC 34147709
Cannot be verified as accurate (confidence 7)  [4EA7D022], AccurateRip returned [3127A1B7]  (AR v2)
Copy OK
[br]
No tracks could be verified as accurate
You may have a different pressing from the one(s) in the database
[br]
No errors occurred
[br]
End of status report
[br]
---- CUETools DB Plugin V2.1.4
[br]
[CTDB TOCID: rVaoKXZMI2Fs7Uab90O8.qphOp8-] found
Submit result: rVaoKXZMI2Fs7Uab90O8.qphOp8- has been confirmed
Track | CTDB Status
1   | (3/3) Accurately ripped
2   | (3/3) Accurately ripped
3   | (3/3) Accurately ripped
4   | (3/3) Accurately ripped
5   | (3/3) Accurately ripped
6   | (3/3) Accurately ripped
[br]
==== Log checksum 1396F3831981BD05D754AACDAB28E7EC6BA67B49E20B223B7534E7D38F9FDE08 ====
-

CUE

REM GENRE Classical
REM DISCID 510ECD06
REM COMMENT "ExactAudioCopy v1.0b4"
PERFORMER "Ludwig van Beethoven"
TITLE "Emperor Concerto  Appassionata Sonata"
FILE "01. Piano concerto #5 in E-flat Major, Op. 73, Allegro.wav" WAVE
TRACK 01 AUDIO
TITLE "Piano concerto #5 in E-flat Major, Op. 73, Allegro"
PERFORMER "Ludwig van Beethoven"
INDEX 01 00:00:00
TRACK 02 AUDIO
TITLE "Piano concerto #5 in E-flat Major, Op. 73, Adagio un poco mosso"
PERFORMER "Ludwig van Beethoven"
INDEX 00 20:02:12
FILE "02. Piano concerto #5 in E-flat Major, Op. 73, Adagio un poco mosso.wav" WAVE
INDEX 01 00:00:00
FILE "03. Piano concerto #5 in E-flat Major, Op. 73, Rondo Allegro.wav" WAVE
TRACK 03 AUDIO
TITLE "Piano concerto #5 in E-flat Major, Op. 73, Rondo Allegro"
PERFORMER "Ludwig van Beethoven"
INDEX 01 00:00:00
TRACK 04 AUDIO
TITLE "Piano Sonata #23 in F Minor, Op. 57, Allegro assai"
PERFORMER "Ludwig van Beethoven"
INDEX 00 10:26:30
FILE "04. Piano Sonata #23 in F Minor, Op. 57, Allegro assai.wav" WAVE
INDEX 01 00:00:00
FILE "05. Piano Sonata #23 in F Minor, Op. 57, Andante con moto.wav" WAVE
TRACK 05 AUDIO
TITLE "Piano Sonata #23 in F Minor, Op. 57, Andante con moto"
PERFORMER "Ludwig van Beethoven"
INDEX 01 00:00:00
FILE "06. Piano Sonata #23 in F Minor, Op. 57, Allegro ma non troppo.wav" WAVE
TRACK 06 AUDIO
TITLE "Piano Sonata #23 in F Minor, Op. 57, Allegro ma non troppo"
PERFORMER "Ludwig van Beethoven"
INDEX 01 00:00:00
-
[teatrix.ru].t22579.torrent 
Торрент: Зарегистрирован [ 2016-03-21 00:31 ] · 195BE6875C0EBE6FE30BE785651429B36F9F8BF2

Скачать .torrent

Скачать

12 KB

Статус: проверено
Скачан: 1 раз
Размер: 279 MB
terms.php



Быстрый ответ

Имя:

      
Для отправки сообщений необходимо включить JavaScript
Показать сообщения:    

Текущее время: 06-Дек 15:14

Часовой пояс: UTC + 3


Вы можете начинать темы
Вы можете отвечать на сообщения
Вы не можете редактировать свои сообщения
Вы не можете удалять свои сообщения
Вы не можете голосовать в опросах
Вы не можете прикреплять файлы к сообщениям
Вы можете скачивать файлы