(Classical) Ludwig van Beethoven — Piano Concerto № 3 & Violin Concerto (Op 37 & 61) (Kovacevich, Grumiaux; Davis) — 2012, FLAC (tracks+.cue) lossless


Статистика раздачи [Обновить пиров]
Размер:  340 MB   |    Зарегистрирован:  8 месяцев 20 дней   |    Скачан:  1 раз

Полного источника не было: 3 месяца 23 дня

 
   
 
 
 

[Цитировать]

Piano Concerto № 3 & Violin Concerto (Op 37 & 61)-
Жанр: Classical
Страна-производитель диска: Великобритания
Издатель (лейбл): Decca
Номер по каталогу: 478 4027
Год издания диска: 2012
Композитор: Ludwig van Beethoven
Аудио кодек: flac
Тип рипа: tracks+.cue
Битрейт аудио: lossless
Продолжительность: 01h18'28"
Источник: What.CD
Наличие сканов в содержимом раздачи: да-Треклист:
Piano Concerto № 3 c-moll Op 37
01. I. Allegro con brio [16'37"]
02. II. Largo [10'50"]
03. III. Rondo: Allegro [09'06"]-BBC Symphony Orchestra, cond. Colin Davis, Piano – Stephen Kovacevich-Violin Concerto D-Dur Op 61
04. I. Allegro ma non troppo – Cadenza [23'59"]
05. II. Larghetto [08'55"]
06. III. Rondo: Allegro [09'01"]-Concertgebouw Orchestra of Amsterdam, cond. Colin Davis, Violin – Arthur Grumiaux-

EAC log

Exact Audio Copy V1.0 beta 3 from 29. August 2011
[br]
EAC extraction logfile from 31. August 2013, 10:07
[br]
Ludwig van Beethoven / Violin Concerto; Piano Concerto No.3
[br]
Used drive  : SlimtypeDVD A DS8A8SH   Adapter: 1  ID: 0
[br]
Read mode               : Secure
Utilize accurate stream : Yes
Defeat audio cache      : Yes
Make use of C2 pointers : No
[br]
Read offset correction                      : 6
Overread into Lead-In and Lead-Out          : No
Fill up missing offset samples with silence : Yes
Delete leading and trailing silent blocks   : No
Null samples used in CRC calculations       : Yes
Used interface                              : Native Win32 interface for Win NT & 2000
Gap handling                                : Appended to previous track
[br]
Used output format              : User Defined Encoder
Selected bitrate                : 512 kBit/s
Quality                         : High
Add ID3 tag                     : No
Command line compressor         : C:\Program Files (x86)\Exact Audio Copy\Flac\flac.exe
Additional command line options : -8 -V -T "ARTIST=%artist%" -T "TITLE=%title%" -T "ALBUM=%albumtitle%" -T "DATE=%year%" -T "TRACKNUMBER=%tracknr%" -T "TOTALTRACKS=%numtracks%" -T "GENRE=%genre%" -T "ALBUMARTIST=%albumartist%" -T "ALBUM ARTIST=%albumartist%" -T "COMMENT=EAC Secure Mode, Test & Copy, AccurateRip, FLAC -8" %source%
[br]
TOC of the extracted CD
[br]
Track |   Start  |  Length  | Start sector | End sector
---------------------------------------------------------
1  |  0:00.00 | 16:37.05 |         0    |    74779
2  | 16:37.05 | 10:50.01 |     74780    |   123530
3  | 27:27.06 |  9:06.22 |    123531    |   164502
4  | 36:33.28 | 23:59.03 |    164503    |   272430
5  | 60:32.31 |  8:54.52 |    272431    |   312532
6  | 69:27.08 |  9:01.20 |    312533    |   353127
[br]
Track  1
[br]
Filename I:\DECCA\Beethoven - Violin Concerto; Piano Concerto No.3 (2012) [FLAC] {Decca 478 4027}\01 - Allegro con brio.wav
[br]
Pre-gap length  0:00:02.00
[br]
Peak level 91.6 %
Extraction speed 1.6 X
Track quality 100.0 %
Test CRC A3B63F53
Copy CRC A3B63F53
Accurately ripped (confidence 2)  [6F5DAB06]  (AR v2)
Copy OK
[br]
Track  2
[br]
Filename I:\DECCA\Beethoven - Violin Concerto; Piano Concerto No.3 (2012) [FLAC] {Decca 478 4027}\02 - Largo.wav
[br]
Pre-gap length  0:00:04.00
[br]
Peak level 49.2 %
Extraction speed 1.9 X
Track quality 100.0 %
Test CRC CC651D55
Copy CRC CC651D55
Accurately ripped (confidence 2)  [FCAA630D]  (AR v2)
Copy OK
[br]
Track  3
[br]
Filename I:\DECCA\Beethoven - Violin Concerto; Piano Concerto No.3 (2012) [FLAC] {Decca 478 4027}\03 - Rondo (Allegro).wav
[br]
Peak level 95.8 %
Extraction speed 2.1 X
Track quality 100.0 %
Test CRC E60BF11B
Copy CRC E60BF11B
Accurately ripped (confidence 2)  [6E0B5352]  (AR v2)
Copy OK
[br]
Track  4
[br]
Filename I:\DECCA\Beethoven - Violin Concerto; Piano Concerto No.3 (2012) [FLAC] {Decca 478 4027}\04 - Allegro ma non troppo - Cadenza.wav
[br]
Pre-gap length  0:00:06.00
[br]
Peak level 92.1 %
Extraction speed 2.6 X
Track quality 100.0 %
Test CRC 858DA009
Copy CRC 858DA009
Accurately ripped (confidence 2)  [0485FC23]  (AR v2)
Copy OK
[br]
Track  5
[br]
Filename I:\DECCA\Beethoven - Violin Concerto; Piano Concerto No.3 (2012) [FLAC] {Decca 478 4027}\05 - Larghetto.wav
[br]
Pre-gap length  0:00:05.00
[br]
Peak level 40.0 %
Extraction speed 2.7 X
Track quality 100.0 %
Test CRC 3DC44933
Copy CRC 3DC44933
Accurately ripped (confidence 2)  [7131F661]  (AR v2)
Copy OK
[br]
Track  6
[br]
Filename I:\DECCA\Beethoven - Violin Concerto; Piano Concerto No.3 (2012) [FLAC] {Decca 478 4027}\06 - Rondo (Allegro).wav
[br]
Peak level 88.5 %
Extraction speed 2.9 X
Track quality 100.0 %
Test CRC 010DF23F
Copy CRC 010DF23F
Accurately ripped (confidence 2)  [280F61B4]  (AR v2)
Copy OK
[br]
All tracks accurately ripped
[br]
No errors occurred
[br]
End of status report
[br]
==== Log checksum 67AD98E28964AEEAA9E6AF173BE39DCE7CAE46640EF118686B611611D5DF1780 ====
-

CUE

REM GENRE Classical
REM DATE 2012
REM DISCID 66126406
REM COMMENT "ExactAudioCopy v1.0b3"
PERFORMER "Ludwig van Beethoven"
TITLE "Violin Concerto; Piano Concerto No.3"
FILE "01 - Allegro con brio.wav" WAVE
TRACK 01 AUDIO
TITLE "Allegro con brio"
PERFORMER "Ludwig van Beethoven"
INDEX 01 00:00:00
TRACK 02 AUDIO
TITLE "Largo"
PERFORMER "Ludwig van Beethoven"
INDEX 00 16:33:05
FILE "02 - Largo.wav" WAVE
INDEX 01 00:00:00
FILE "03 - Rondo (Allegro).wav" WAVE
TRACK 03 AUDIO
TITLE "Rondo (Allegro)"
PERFORMER "Ludwig van Beethoven"
INDEX 01 00:00:00
TRACK 04 AUDIO
TITLE "Allegro ma non troppo - Cadenza"
PERFORMER "Ludwig van Beethoven"
INDEX 00 09:00:22
FILE "04 - Allegro ma non troppo - Cadenza.wav" WAVE
INDEX 01 00:00:00
TRACK 05 AUDIO
TITLE "Larghetto"
PERFORMER "Ludwig van Beethoven"
INDEX 00 23:54:03
FILE "05 - Larghetto.wav" WAVE
INDEX 01 00:00:00
FILE "06 - Rondo (Allegro).wav" WAVE
TRACK 06 AUDIO
TITLE "Rondo (Allegro)"
PERFORMER "Ludwig van Beethoven"
INDEX 01 00:00:00
-
[teatrix.ru].t22580.torrent 
Торрент: Зарегистрирован [ 2016-03-21 00:31 ] · 6B656627DE95A7601AF15FF9F81DEEAF7911C991

Скачать .torrent

Скачать

15 KB

Статус: проверено
Скачан: 1 раз
Размер: 340 MB
terms.php



Быстрый ответ

Имя:

      
Для отправки сообщений необходимо включить JavaScript
Показать сообщения:    

Текущее время: 10-Дек 09:59

Часовой пояс: UTC + 3


Вы можете начинать темы
Вы можете отвечать на сообщения
Вы не можете редактировать свои сообщения
Вы не можете удалять свои сообщения
Вы не можете голосовать в опросах
Вы не можете прикреплять файлы к сообщениям
Вы можете скачивать файлы