(Classical/Minimalism) Eighth Blackbird - Filament [Bryce Dessner - Murder Ballades, Nico Muhly - Doublespeak & Philip Glass - Two Pages] - 2015, FLAC (image+.cue) lossless


 

[Цитировать]

Eighth Blackbird - Filament
Жанр: Classical/Minimalism
Страна-производитель диска: USA
Год издания диска: 2015
Издатель (лейбл): Cedille Records
Номер по каталогу: CDR 90000 157
Аудиокодек: FLAC
Тип рипа: image+.cue
Битрейт аудио: lossless
Продолжительность: 49'23"
Источник: собственный рип
Наличие сканов в содержимом раздачи: да
Треклист:
Bryce Dessner - Murder Ballades
01. Omie Wise
02. Young Emily
03. Dark Holler
04. Wave the Sea - Brushy Fork
05. Brushy Fork
06. Pretty Polly
07. Tears for Sister Polly
Nico Muhly
08. Doublespeak
Ryan Lott (Son Lux)
09. To Love
Philip Glass
10. Two Pages*
Ryan Lott (Son Lux)
11. This is my Line
Исполнители:
Eighth Blackbird
Bryce Dessner, guitar*
Nico Muhly, organ*-

Лог создания рипа

Exact Audio Copy V1.0 beta 4 from 7. December 2014
EAC extraction logfile from 14. November 2015, 13:24
Eighth Blackbird / Filament
Used drive : TSSTcorpDVDWBD TS-LB23A Adapter: 1 ID: 0
Read mode : Secure
Utilize accurate stream : Yes
Defeat audio cache : Yes
Make use of C2 pointers : No
Read offset correction : 6
Overread into Lead-In and Lead-Out : No
Fill up missing offset samples with silence : Yes
Delete leading and trailing silent blocks : No
Null samples used in CRC calculations : Yes
Used interface : Native Win32 interface for Win NT & 2000
Used output format : User Defined Encoder
Selected bitrate : 128 kBit/s
Quality : High
Add ID3 tag : Yes
Command line compressor : C:\Program Files (x86)\Exact Audio Copy\Flac\flac.exe
Additional command line options : -T "COMMENT=Ripped by GFox" -V -8 %source%
TOC of the extracted CD
Track | Start | Length | Start sector | End sector
---------------------------------------------------------
1 | 0:00.00 | 3:15.28 | 0 | 14652
2 | 3:15.28 | 3:51.13 | 14653 | 31990
3 | 7:06.41 | 2:23.35 | 31991 | 42750
4 | 9:30.01 | 1:59.09 | 42751 | 51684
5 | 11:29.10 | 1:45.36 | 51685 | 59595
6 | 13:14.46 | 2:39.13 | 59596 | 71533
7 | 15:53.59 | 2:55.73 | 71534 | 84731
8 | 18:49.57 | 9:06.05 | 84732 | 125686
9 | 27:55.62 | 2:03.27 | 125687 | 134938
10 | 29:59.14 | 16:20.04 | 134939 | 208442
11 | 46:19.18 | 3:04.13 | 208443 | 222255
Range status and errors
Selected range
Filename D:\Downloads\Eighth Blackbird - Filament.wav
Peak level 98.8 %
Extraction speed 1.5 X
Range quality 99.9 %
Test CRC E785E31C
Copy CRC E785E31C
Copy OK
No errors occurred
AccurateRip summary
Track 1 not present in database
Track 2 not present in database
Track 3 not present in database
Track 4 not present in database
Track 5 not present in database
Track 6 not present in database
Track 7 not present in database
Track 8 not present in database
Track 9 not present in database
Track 10 not present in database
Track 11 not present in database
None of the tracks are present in the AccurateRip database
End of status report
==== Log checksum 0A2B0A925F0BB59DDDD13C72196D404A5E911E8151181E93AB02AA4400D77EE7 ====
-



Показать сообщения:    

Текущее время: 10-Дек 19:41

Часовой пояс: UTC + 3


Вы не можете начинать темы
Вы не можете отвечать на сообщения
Вы не можете редактировать свои сообщения
Вы не можете удалять свои сообщения
Вы не можете голосовать в опросах
Вы не можете прикреплять файлы к сообщениям
Вы не можете скачивать файлы