Отходя от Бога - Джулия Суини / Letting Go Of God - Julia Sweeney [2008, Автобиографичный монолог, DVDRip] Русская озвучка


Статистика раздачи [Обновить пиров]
Размер:  1.9 GB   |    Зарегистрирован:  8 месяцев 17 дней   |    Скачан:  0 раз

Полного источника не было: Никогда

 
   
 
 
 

[Цитировать]

Отходя от Бога - Джулия Суини
Letting Go Of God - Julia Sweeney

Русская озвучка
_____________________________________________________________________________
Год выпуска: 2008
Страна: США
Жанр: Автобиографичный монолог
Продолжительность: 02:10:20
Перевод: Одноголосый закадровый
Текст читает: Holly
Язык: Русский
Субтитры: Нет
Оригинальная дорожка: Нет
_____________________________________________________________________________
Описание:
Джулия Суини, американская актриса, писатель и комедиант, в автобиографичном монологе рассказывает свою историю религиозного поиска.
Будучи воспитанной в религиозной семье, она не могла помыслить свою жизнь без Бога, пока к ней не постучались два мормона. После этого Джулия решила детальнее разобраться в своей вере, и поближе познакомится с религиозными учениями. Куда она в итоге пришла после нескольких лет поисков, Джулия рассказывает в своём монологе "Отходя от Бога", местами забавном, местами грустном, но при этом весьма увлекательном.
Монолог будет особенно интересен тем, кто находится на пути "поиска Истины". Те, кто уже прошёл этот путь, смогут узнать в героине самих себя.
В любом случае, рекомендуем всем!
Озвучка: Holly
Монтаж: Rumble
_____________________________________________________________________________
SAMPLE
Качество: DVDRip
Формат: AVI
Видео кодек: XviD
Аудио кодек: MP3
Видео: XviD MPEG-4 ~1800 kbps avh, 860x480 @ 29.970 fps
Аудио: Русская озвучка - MP3, 192 Kbps, 48.000 Hz, 2 channels
_____________________________________________________________________________

MediaInfo

General
Complete name : H:\Video\Moovies\Отходя от бога\Джулия Суини - Отходя от Бога (Русская озвучка).avi
Format : AVI
Format/Info : Audio Video Interleave
Format profile : OpenDML
File size : 1.90 GiB
Duration : 2h 10mn
Overall bit rate : 2 090 Kbps
TCOD : 0
TCDO : 78262184000
Video
ID : 0
Format : MPEG-4 Visual
Format profile : Advanced Simple@L5
Format settings, BVOP : 2
Format settings, QPel : No
Format settings, GMC : No warppoints
Format settings, Matrix : Default (H.263)
Muxing mode : Packed bitstream
Codec ID : XVID
Codec ID/Hint : XviD
Duration : 2h 10mn
Bit rate : 1 798 Kbps
Width : 860 pixels
Height : 480 pixels
Display aspect ratio : 16:9
Frame rate : 29.970 fps
Color space : YUV
Chroma subsampling : 4:2:0
Bit depth : 8 bits
Scan type : Progressive
Compression mode : Lossy
Bits/(Pixel*Frame) : 0.145
Stream size : 1.64 GiB (86%)
Writing library : XviD 73
Audio
ID : 1
Format : MPEG Audio
Format version : Version 1
Format profile : Layer 3
Mode : Joint stereo
Codec ID : 55
Codec ID/Hint : MP3
Duration : 2h 10mn
Bit rate mode : Constant
Bit rate : 192 Kbps
Channel(s) : 2 channels
Sampling rate : 48.0 KHz
Compression mode : Lossy
Stream size : 179 MiB (9%)
Alignment : Aligned on interleaves
Interleave, duration : 250 ms (7.49 video frames)
Interleave, preload duratio : 216 ms

Скриншоты

[teatrix.ru].t22584.torrent 
Торрент: Зарегистрирован [ 2016-03-21 00:34 ] · 288EA3AFFA5ECFA878D6DD14160CF048514A86B1

Скачать .torrent

Скачать

20 KB

Статус: проверено
Скачан: 0 раз
Размер: 1.9 GB
terms.php



Быстрый ответ

Имя:

      
Для отправки сообщений необходимо включить JavaScript
Показать сообщения:    

Текущее время: 07-Дек 11:34

Часовой пояс: UTC + 3


Вы можете начинать темы
Вы можете отвечать на сообщения
Вы не можете редактировать свои сообщения
Вы не можете удалять свои сообщения
Вы не можете голосовать в опросах
Вы не можете прикреплять файлы к сообщениям
Вы можете скачивать файлы