(Classical) Ludwig van Beethoven — Triple Concerto • Piano Concerto D-Dur (Op 56 & 61a) (Jeno Jando, Dong-Suk Kang, Maria Kliegel; Bela Drahos) — 1998, FLAC (tracks+.cue) lossless


Статистика раздачи [Обновить пиров]
Размер:  302 MB   |    Зарегистрирован:  8 месяцев 12 дней   |    Скачан:  1 раз

Полного источника не было: 3 месяца 15 дней

 
   
 
 
 

[Цитировать]

Triple Concerto • Piano Concerto D-Dur (Op 56 & 61a)-
Жанр: Classical
Страна-производитель диска: Германия
Издатель (лейбл): Naxos
Номер по каталогу: 8.554288
Год издания диска: 1998
Год записи фонограммы: 1997 (1-6 May)
Композитор: Ludwig van Beethoven
Аудио кодек: flac
Тип рипа: tracks+.cue
Битрейт аудио: lossless
Продолжительность: 01h19'13"
Источник: What.CD
Наличие сканов в содержимом раздачи: нет-Треклист:
Violin Concerto D-Dur Op 61a (Piano Version)
01. I. Allegro, ma non troppo [24'14"]
02. II. Larghetto [09'23"]
03. III. Rondo [09'48"]
Violin, Cello & Piano Concerto C-Dur Op 56
04. I. Allegro [17'40"]
05. II. Largo [05'03"]
06. III. Rondo Alla Polacca [13'04"]-Nicolaus Esterhazy Sinfonia, cond. Bela Drahos, Violin – Dong-Suk Kang, Cello – Maria Kliegel, Piano – Jeno Jando-

EAC log

Exact Audio Copy V1.0 beta 3 from 29. August 2011
[br]
EAC extraction logfile from 11. August 2015, 9:08
[br]
Beethoven, Ludwig van / Triple Concerto, Piano Concerto in D
[br]
Used drive  : HL-DT-STBDDVDRW CH12NS30   Adapter: 0  ID: 0
[br]
Read mode               : Secure
Utilize accurate stream : Yes
Defeat audio cache      : Yes
Make use of C2 pointers : No
[br]
Read offset correction                      : 6
Overread into Lead-In and Lead-Out          : No
Fill up missing offset samples with silence : Yes
Delete leading and trailing silent blocks   : No
Null samples used in CRC calculations       : Yes
Used interface                              : Native Win32 interface for Win NT & 2000
Gap handling                                : Appended to previous track
[br]
Used output format              : User Defined Encoder
Selected bitrate                : 1024 kBit/s
Quality                         : High
Add ID3 tag                     : No
Command line compressor         : C:\Program Files (x86)\Exact Audio Copy\Flac\flac.exe
Additional command line options : -8 -V -T "ARTIST=%artist%" -T "TITLE=%title%" -T "ALBUM=%albumtitle%" -T "DATE=%year%" -T "TRACKNUMBER=%tracknr%" -T "GENRE=%genre%" -T "PERFORMER=%albuminterpret%" -T "COMPOSER=%composer%" %haslyrics%--tag-from-file=LYRICS="%lyricsfile%"%haslyrics% -T "ALBUMARTIST=%albumartist%" -T "DISCNUMBER=%cdnumber%" -T "TOTALDISCS=%totalcds%" -T "TOTALTRACKS=%numtracks%" -T "COMMENT=%comment%" %source% -o %dest%
[br]
TOC of the extracted CD
[br]
Track |   Start  |  Length  | Start sector | End sector
---------------------------------------------------------
1  |  0:00.00 | 24:14.10 |         0    |   109059
2  | 24:14.10 |  9:23.13 |    109060    |   151297
3  | 33:37.23 |  9:48.36 |    151298    |   195433
4  | 43:25.59 | 17:40.12 |    195434    |   274945
5  | 61:05.71 |  5:02.39 |    274946    |   297634
6  | 66:08.35 | 13:04.35 |    297635    |   356469
[br]
Track  1
[br]
Filename G:\EAC Files\01 - Violin Concerto in D Major Op. 61a (Piano version)- Allegro, ma non troppo.wav
[br]
Pre-gap length  0:00:02.00
[br]
Peak level 90.0 %
Extraction speed 3.0 X
Track quality 99.9 %
Test CRC 0D2A45F6
Copy CRC 0D2A45F6
Accurately ripped (confidence 1)  [590B92DB]  (AR v2)
Copy OK
[br]
Track  2
[br]
Filename G:\EAC Files\02 - Violin Concerto in D Major Op. 61a (Piano version)- Larghetto.wav
[br]
Pre-gap length  0:00:03.00
[br]
Peak level 51.7 %
Extraction speed 2.0 X
Track quality 100.0 %
Test CRC 858DF642
Copy CRC 858DF642
Accurately ripped (confidence 1)  [1C79FB9F]  (AR v2)
Copy OK
[br]
Track  3
[br]
Filename G:\EAC Files\03 - Violin Concerto in D Major Op. 61a (Piano version)- Rondo.wav
[br]
Peak level 89.6 %
Extraction speed 2.2 X
Track quality 100.0 %
Test CRC 77166EE6
Copy CRC 77166EE6
Accurately ripped (confidence 1)  [8C9F2AE4]  (AR v2)
Copy OK
[br]
Track  4
[br]
Filename G:\EAC Files\04 - Concerto in C Major for violin, cello and piano Op. 56- Allegro.wav
[br]
Pre-gap length  0:00:07.00
[br]
Peak level 90.0 %
Extraction speed 2.5 X
Track quality 100.0 %
Test CRC 8104FD26
Copy CRC 8104FD26
Accurately ripped (confidence 1)  [49654F7A]  (AR v2)
Copy OK
[br]
Track  5
[br]
Filename G:\EAC Files\05 - Concerto in C Major for violin, cello and piano Op. 56- Largo.wav
[br]
Pre-gap length  0:00:05.00
[br]
Peak level 35.3 %
Extraction speed 2.4 X
Track quality 100.0 %
Test CRC 252BC2A1
Copy CRC 252BC2A1
Accurately ripped (confidence 1)  [6DC54702]  (AR v2)
Copy OK
[br]
Track  6
[br]
Filename G:\EAC Files\06 - Concerto in C Major for violin, cello and piano Op. 56- Rondo alla polacca.wav
[br]
Peak level 88.9 %
Extraction speed 2.8 X
Track quality 100.0 %
Test CRC E6B705E0
Copy CRC E6B705E0
Accurately ripped (confidence 1)  [92E66304]  (AR v2)
Copy OK
[br]
All tracks accurately ripped
[br]
No errors occurred
[br]
End of status report
[br]
==== Log checksum 2F128F9D8EDB927DA8AA791192345C30DA01D9C00E4E2BF4805389879DE6CD7D ====
-

CUE

REM GENRE Classical
REM DATE 1997
REM DISCID 56129006
REM COMMENT "ExactAudioCopy v1.0b3"
PERFORMER "Beethoven, Ludwig van"
TITLE "Triple Concerto, Piano Concerto in D"
FILE "01 - Violin Concerto in D Major Op. 61a (Piano version)- Allegro, ma non troppo.wav" WAVE
TRACK 01 AUDIO
TITLE "Violin Concerto in D Major Op. 61a (Piano version): Allegro, ma non troppo"
PERFORMER "Bйla Drahos/Nicolaus Esterhбzy Sinfonia"
INDEX 01 00:00:00
TRACK 02 AUDIO
TITLE "Violin Concerto in D Major Op. 61a (Piano version): Larghetto"
PERFORMER "Bйla Drahos/Nicolaus Esterhбzy Sinfonia"
INDEX 00 24:11:10
FILE "02 - Violin Concerto in D Major Op. 61a (Piano version)- Larghetto.wav" WAVE
INDEX 01 00:00:00
FILE "03 - Violin Concerto in D Major Op. 61a (Piano version)- Rondo.wav" WAVE
TRACK 03 AUDIO
TITLE "Violin Concerto in D Major Op. 61a (Piano version): Rondo"
PERFORMER "Bйla Drahos/Nicolaus Esterhбzy Sinfonia"
INDEX 01 00:00:00
TRACK 04 AUDIO
TITLE "Concerto in C Major for violin, cello and piano Op. 56: Allegro"
PERFORMER "Bйla Drahos/Nicolaus Esterhбzy Sinfonia"
INDEX 00 09:41:36
FILE "04 - Concerto in C Major for violin, cello and piano Op. 56- Allegro.wav" WAVE
INDEX 01 00:00:00
TRACK 05 AUDIO
TITLE "Concerto in C Major for violin, cello and piano Op. 56: Largo"
PERFORMER "Bйla Drahos/Nicolaus Esterhбzy Sinfonia"
INDEX 00 17:35:12
FILE "05 - Concerto in C Major for violin, cello and piano Op. 56- Largo.wav" WAVE
INDEX 01 00:00:00
FILE "06 - Concerto in C Major for violin, cello and piano Op. 56- Rondo alla polacca.wav" WAVE
TRACK 06 AUDIO
TITLE "Concerto in C Major for violin, cello and piano Op. 56: Rondo alla polacca"
PERFORMER "Bйla Drahos/Nicolaus Esterhбzy Sinfonia"
INDEX 01 00:00:00
-
[teatrix.ru].t22585.torrent 
Торрент: Зарегистрирован [ 2016-03-21 00:34 ] · EB649B6F7489B5F08F5230C37B76F5D690631DF3

Скачать .torrent

Скачать

13 KB

Статус: проверено
Скачан: 1 раз
Размер: 302 MB
terms.php



Быстрый ответ

Имя:

      
Для отправки сообщений необходимо включить JavaScript
Показать сообщения:    

Текущее время: 02-Дек 23:11

Часовой пояс: UTC + 3


Вы можете начинать темы
Вы можете отвечать на сообщения
Вы не можете редактировать свои сообщения
Вы не можете удалять свои сообщения
Вы не можете голосовать в опросах
Вы не можете прикреплять файлы к сообщениям
Вы можете скачивать файлы