[TR24][SM][OF] Handel - Ombra Cara: Opera Arias - Amadigi di Gaula, Agrippina, Riccardo Primo, Tolomeo, Orlando, Rodrigo, Radimisto, Rodelinda, Sosarme (Bejun Mehta, Freiburger Barockorchester, Rene Jacobs) - 2010 (Classical, Baroque)


Статистика раздачи [Обновить пиров]
Размер:  696 MB   |    Зарегистрирован:  8 месяцев 15 дней   |    Скачан:  0 раз

Полного источника не было: Никогда

 
   
 
 
 

[Цитировать]

Handel - Ombra Cara: Opera Arias - Amadigi di Gaula, Agrippina, Riccardo Primo, Tolomeo, Orlando, Rodrigo, Radimisto, Rodelinda, Sosarme (Bejun Mehta, Freiburger Barockorchester, Rene Jacobs)
Год издания: 2010
Жанр: Classical, Baroque
Издатель (лейбл): Harmonia Mundi / HMC 902077
Продолжительность: 01:11:45
Наличие сканов: да-Контейнер: FLAC (*.flac)
Тип рипа: tracks
Разрядность: 24bit / 44,1kHz
Количество каналов: 2.0-Исполнители:
Bejun Mehta (countertenor)
Freiburger Barockorchester
Rene Jacobs
Треклист:
Amadigi di Gaula (1715), HWV 11:
01. Aria Sento la gioia (III, 6) (04:40)
Agrippina (1709), HWV 6:
02. Otton, Otton (01:19)
03. Aria Voi, che udite il mio lamento (II, 5) (06:02)
Riccardo primo, re d'Inghilterra (1727), HWV 23:
04. Aria Agitato da fiere tempeste (I, 6) (04:06)
Tolomeo, re d'Egitto (1728), HWV 25:
05. Recitativo Che piu si tarda omai, Accompagnato Inumano fratel (02:10)
06. Aria Stille amare (III, 6) (05:32)
Orlando (1733), HWV 31:
07. Act II, Scene 11, Accompagnato "Ah! Stigie larve", Arioso "Gia latra Cerbero", Accompagnato "Ma la furia", Aria "Vaghe pupille" (08:13)
Rodrigo (1707), HWV 5:
08. Passacaille (Ouverture) (04:39)
Radamisto, HWV 12, HWV 12:
09. Act II, Scene 2, Aria "Ombra cara di mia sposa" (09:32)
Rodelinda (1725), HWV 19:
10. Fra tempeste funeste (II, 4) (04:47)
11. Con rauco mormorio (II, 5) (07:13)
Orlando (1733), HWV 31:
12. Act I, Scene 9, Recitativo "T'ubbidiro, crudele", Aria "Fammi combattere" (03:54)
Sosarme, HWV 30:
13. Act II, Duetto, "Per le porte del tormento" (09:38)-

Динамический диапазон - DR:

foobar2000 1.3.2 / Замер динамического диапазона (DR) 1.1.1
Дата отчёта: 2015-11-14 23:24:45
--------------------------------------------------------------------------------
Анализ: Bejun Mehta, Freiburger Barockorchester, René Jacobs / Handel: Ombra cara
--------------------------------------------------------------------------------
DR Пики RMS Продолжительность трека
--------------------------------------------------------------------------------
DR14 -0.30 дБ -16.77 дБ 4:40 01-Amadigi di Gaula (1715): Aria Sento la gioia (III, 6)
DR13 -1.66 дБ -20.26 дБ 1:19 02-Agrippina (1709): Otton, Otton
DR15 -1.68 дБ -21.80 дБ 6:02 03-Agrippina (1709): Aria Voi, che udite il mio lamento (II, 5)
DR14 -0.82 дБ -18.08 дБ 4:06 04-Riccardo primo, re d'Inghilterra (1727): Aria Agitato da fiere tempeste (I, 6)
DR15 -0.30 дБ -20.28 дБ 2:10 05-Tolomeo, re d'Egitto (1728): Recitativo Che più si tarda omai, Accompagnato Inumano fratel
DR14 -3.88 дБ -22.03 дБ 5:32 06-Tolomeo, re d'Egitto (1728): Aria Stille amare (III, 6)
DR15 -0.30 дБ -20.06 дБ 8:13 07-Orlando (1733): Act II, Scene 11, Accompagnato "Ah! Stigie larve", Arioso "Già latra Cerbero", Accompagnato "Ma la furia", Aria "Vaghe pupille"
DR12 -2.06 дБ -20.35 дБ 4:39 08-Rodrigo (1707): Passacaille (Ouverture)
DR16 -0.30 дБ -21.21 дБ 9:32 09-Radamisto, HWV 12: Act II, Scene 2, Aria "Ombra cara di mia sposa"
DR14 -3.55 дБ -20.89 дБ 4:47 10-Rodelinda (1725): Fra tempeste funeste (II, 4)
DR14 -2.08 дБ -21.60 дБ 7:13 11-Rodelinda (1725): Con rauco mormorio (II, 5)
DR15 -0.63 дБ -18.07 дБ 3:54 12-Orlando (1733): Act I, Scene 9, Recitativo "T'ubbidirò, crudele", Aria "Fammi combattere"
DR15 -0.30 дБ -19.31 дБ 9:38 13-Sosarme, HWV 30: Act II, Duetto, "Per le porte del tormento"
--------------------------------------------------------------------------------
Количество треков: 13
Реальные значения DR: DR14
Частота: 44100 Гц
Каналов: 2
Разрядность: 24
Битрейт: 1341 кбит/с
Кодек: FLAC
================================================================================
[teatrix.ru].t22586.torrent 
Торрент: Зарегистрирован [ 2016-03-21 00:34 ] · 31E372D0BBE8E1589A35E43E6B7462CA568435F7

Скачать .torrent

Скачать

16 KB

Статус: проверено
Скачан: 0 раз
Размер: 696 MB
terms.php



Быстрый ответ

Имя:

      
Для отправки сообщений необходимо включить JavaScript
Показать сообщения:    

Текущее время: 05-Дек 03:29

Часовой пояс: UTC + 3


Вы можете начинать темы
Вы можете отвечать на сообщения
Вы не можете редактировать свои сообщения
Вы не можете удалять свои сообщения
Вы не можете голосовать в опросах
Вы не можете прикреплять файлы к сообщениям
Вы можете скачивать файлы