(Classical) Ludwig van Beethoven — Piano Concerto № 4 • Piano Sonata № 18 (Op 58 & 31/3) (Aldo Mancinelli, Paul Freeman) — 1999, FLAC (tracks) lossless


Статистика раздачи [Обновить пиров]
Размер:  209 MB   |    Зарегистрирован:  8 месяцев 14 дней   |    Скачан:  1 раз

Полного источника не было: 3 месяца 17 дней

 
   
 
 
 

[Цитировать]

Piano Concerto № 4 • Piano Sonata № 18 (Op 58 & 31/3)- Жанр: Classical
Страна-производитель диска: Великобритания
Издатель (лейбл): Tintagel Audio
Год издания диска: 1999
Композитор: Ludwig van Beethoven
Аудио кодек: flac
Тип рипа: tracks
Битрейт аудио: lossless
Продолжительность: 01h03'13"
Источник: What.CD
Наличие сканов в содержимом раздачи: нет-Треклист:
Piano Concerto № 4 G-Dur Op 58
01. I. Allegro moderato [18'40"]
02. II. Andante con moto [05'04"]
03. III. Rondo: Vivace [10'26"]
Piano Sonata № 18 Es-Dur Op 31/3
04. I. Allegro [08'54"]
05. II. Scherzo [05'14"]
06. III. Menuetto [04'50"]
07. IV. Rondo [04'57"]
08. 6 Variations on Paisiello's «Nel cor piu non mi sento» G-Dur WoO 70 [05'09"]-Czech National Symphony Orchestra, cond. Paul Freeman, Piano – Aldo Mancinelli-

EAC log

Exact Audio Copy V1.0 beta 4 from 7. December 2014
[br]
EAC extraction logfile from 10. July 2015, 22:04
[br]
Aldo Mancinelli & Paul Freeman / Beethoven Concerto No. 4, solo works
[br]
Used drive  : MATSHITADVD-RAM UJ8E2   Adapter: 1  ID: 0
[br]
Read mode               : Secure
Utilize accurate stream : Yes
Defeat audio cache      : Yes
Make use of C2 pointers : No
[br]
Read offset correction                      : 103
Overread into Lead-In and Lead-Out          : No
Fill up missing offset samples with silence : Yes
Delete leading and trailing silent blocks   : No
Null samples used in CRC calculations       : Yes
Used interface                              : Native Win32 interface for Win NT & 2000
Gap handling                                : Appended to previous track
[br]
Used output format              : User Defined Encoder
Selected bitrate                : 128 kBit/s
Quality                         : High
Add ID3 tag                     : Yes
Command line compressor         : C:\Greeley\Programs\Program Files (x86)\Exact Audio Copy\Flac\flac.exe
Additional command line options : -8 -V -T "ARTIST=%artist%" -T "TITLE=%title%" -T "ALBUM=%albumtitle%" -T "DATE=%year%" -T "TRACKNUMBER=%tracknr%" -T "GENRE=%genre%" -T "PERFORMER=%albuminterpret%" -T "COMPOSER=%composer%" -T "ALBUMARTIST=%albumartist%" -T "DISCNUMBER=%cdnumber%" -T "TOTALDISCS=%totalcds%" -T "TOTALTRACKS=%numtracks%" %source% -o %dest%
[br]
TOC of the extracted CD
[br]
Track |   Start  |  Length  | Start sector | End sector
---------------------------------------------------------
1  |  0:00.00 | 18:39.56 |         0    |    83980
2  | 18:39.56 |  5:03.61 |     83981    |   106766
3  | 23:43.42 | 10:26.04 |    106767    |   153720
4  | 34:09.46 |  8:53.46 |    153721    |   193741
5  | 43:03.17 |  5:13.67 |    193742    |   217283
6  | 48:17.09 |  4:50.30 |    217284    |   239063
7  | 53:07.39 |  4:56.38 |    239064    |   261301
8  | 58:04.02 |  5:08.52 |    261302    |   284453
[br]
Track  4
[br]
Filename C:\Users\G\Desktop\New folder\Aldo Mancinelli & Paul Freeman - Beethoven Concerto No. 4, solo works - 1998 [FLAC]\04 - Piano Sonata in Eb Major, Opus 31, No. 3 - Allegro.wav
[br]
Pre-gap length  0:00:07.67
[br]
Copy aborted
[br]
No tracks could be verified as accurate
[br]
There were errors
[br]
End of status report
[br]
==== Log checksum 76448749BA8F6BCAEF232D3AAEB08AAFF1C3CD553A34501601B27EE9160A6375 ====
[br]
------------------------------------------------------------
[br]
Exact Audio Copy V1.0 beta 4 from 7. December 2014
[br]
EAC extraction logfile from 11. July 2015, 4:21
[br]
Aldo Mancinelli & Paul Freeman / Beethoven Concerto No. 4, solo works
[br]
Used drive  : MATSHITADVD-RAM UJ8E2   Adapter: 1  ID: 0
[br]
Read mode               : Secure
Utilize accurate stream : Yes
Defeat audio cache      : Yes
Make use of C2 pointers : No
[br]
Read offset correction                      : 103
Overread into Lead-In and Lead-Out          : No
Fill up missing offset samples with silence : Yes
Delete leading and trailing silent blocks   : No
Null samples used in CRC calculations       : Yes
Used interface                              : Native Win32 interface for Win NT & 2000
Gap handling                                : Appended to previous track
[br]
Used output format              : User Defined Encoder
Selected bitrate                : 128 kBit/s
Quality                         : High
Add ID3 tag                     : Yes
Command line compressor         : C:\Greeley\Programs\Program Files (x86)\Exact Audio Copy\Flac\flac.exe
Additional command line options : -8 -V -T "ARTIST=%artist%" -T "TITLE=%title%" -T "ALBUM=%albumtitle%" -T "DATE=%year%" -T "TRACKNUMBER=%tracknr%" -T "GENRE=%genre%" -T "PERFORMER=%albuminterpret%" -T "COMPOSER=%composer%" -T "ALBUMARTIST=%albumartist%" -T "DISCNUMBER=%cdnumber%" -T "TOTALDISCS=%totalcds%" -T "TOTALTRACKS=%numtracks%" %source% -o %dest%
[br]
TOC of the extracted CD
[br]
Track |   Start  |  Length  | Start sector | End sector
---------------------------------------------------------
1  |  0:00.00 | 18:39.56 |         0    |    83980
2  | 18:39.56 |  5:03.61 |     83981    |   106766
3  | 23:43.42 | 10:26.04 |    106767    |   153720
4  | 34:09.46 |  8:53.46 |    153721    |   193741
5  | 43:03.17 |  5:13.67 |    193742    |   217283
6  | 48:17.09 |  4:50.30 |    217284    |   239063
7  | 53:07.39 |  4:56.38 |    239064    |   261301
8  | 58:04.02 |  5:08.52 |    261302    |   284453
[br]
Track  1
[br]
Filename C:\Users\G\Desktop\New folder\Aldo Mancinelli & Paul Freeman - Beethoven Concerto No. 4, solo works - 1998 [FLAC]\01 - Piano Concerto No. 4 in G Major, Opus 58 - Allegro moderato.wav
[br]
Pre-gap length  0:00:02.00
[br]
Peak level 98.8 %
Extraction speed 1.9 X
Track quality 100.0 %
Test CRC 4A890FC9
Copy CRC 4A890FC9
Track not present in AccurateRip database
Copy OK
[br]
Track  2
[br]
Filename C:\Users\G\Desktop\New folder\Aldo Mancinelli & Paul Freeman - Beethoven Concerto No. 4, solo works - 1998 [FLAC]\02 - Piano Concerto No. 4 in G Major, Opus 58 - Andante con moto.wav
[br]
Pre-gap length  0:00:05.25
[br]
Peak level 44.0 %
Extraction speed 2.1 X
Track quality 100.0 %
Test CRC 3971DCCA
Copy CRC 3971DCCA
Track not present in AccurateRip database
Copy OK
[br]
Track  3
[br]
Filename C:\Users\G\Desktop\New folder\Aldo Mancinelli & Paul Freeman - Beethoven Concerto No. 4, solo works - 1998 [FLAC]\03 - Piano Concerto No. 4 in G Major, Opus 58 - Rondo-vivace.wav
[br]
Pre-gap length  0:00:00.57
[br]
Peak level 98.8 %
Extraction speed 2.5 X
Track quality 100.0 %
Test CRC 267A40EE
Copy CRC 267A40EE
Track not present in AccurateRip database
Copy OK
[br]
Track  4
[br]
Filename C:\Users\G\Desktop\New folder\Aldo Mancinelli & Paul Freeman - Beethoven Concerto No. 4, solo works - 1998 [FLAC]\04 - Piano Sonata in Eb Major, Opus 31, No. 3 - Allegro.wav
[br]
Pre-gap length  0:00:07.67
[br]
Peak level 76.0 %
Extraction speed 2.7 X
Track quality 100.0 %
Test CRC C39ABE15
Copy CRC C39ABE15
Track not present in AccurateRip database
Copy OK
[br]
Track  5
[br]
Filename C:\Users\G\Desktop\New folder\Aldo Mancinelli & Paul Freeman - Beethoven Concerto No. 4, solo works - 1998 [FLAC]\05 - Piano Sonata in Eb Major, Opus 31, No. 3 - Scherzo.wav
[br]
Pre-gap length  0:00:03.65
[br]
Peak level 70.9 %
Extraction speed 2.8 X
Track quality 100.0 %
Test CRC 2016817E
Copy CRC 2016817E
Track not present in AccurateRip database
Copy OK
[br]
Track  6
[br]
Filename C:\Users\G\Desktop\New folder\Aldo Mancinelli & Paul Freeman - Beethoven Concerto No. 4, solo works - 1998 [FLAC]\06 - Piano Sonata in Eb Major, Opus 31, No. 3 - Menuetto.wav
[br]
Pre-gap length  0:00:04.74
[br]
Peak level 39.6 %
Extraction speed 2.8 X
Track quality 100.0 %
Test CRC 130C18DC
Copy CRC 130C18DC
Track not present in AccurateRip database
Copy OK
[br]
Track  7
[br]
Filename C:\Users\G\Desktop\New folder\Aldo Mancinelli & Paul Freeman - Beethoven Concerto No. 4, solo works - 1998 [FLAC]\07 - Piano Sonata in Eb Major, Opus 31, No. 3 - Rondo.wav
[br]
Pre-gap length  0:00:06.57
[br]
Peak level 57.5 %
Extraction speed 2.9 X
Track quality 100.0 %
Test CRC 6CCD760D
Copy CRC 6CCD760D
Track not present in AccurateRip database
Copy OK
[br]
Track  8
[br]
Filename C:\Users\G\Desktop\New folder\Aldo Mancinelli & Paul Freeman - Beethoven Concerto No. 4, solo works - 1998 [FLAC]\08 - Variations on Paisiello's ''Nel cor piu non mi sento''.wav
[br]
Pre-gap length  0:00:08.18
[br]
Peak level 53.0 %
Extraction speed 3.1 X
Track quality 100.0 %
Test CRC 8204747E
Copy CRC 8204747E
Track not present in AccurateRip database
Copy OK
[br]
None of the tracks are present in the AccurateRip database
[br]
No errors occurred
[br]
End of status report
[br]
---- CUETools DB Plugin V2.1.4
[br]
[CTDB TOCID: bfVeKIrKbQBKrZq8p_xrUj1Sr8s-] disk not present in database
Submit result: bfVeKIrKbQBKrZq8p_xrUj1Sr8s- has been uploaded
[br]
==== Log checksum 0D6C09D717BE55EB0ED05C0366E22F6C3B165EC38F5F4E6AEFD21F0321EDA1C2 ====
-
[teatrix.ru].t22587.torrent 
Торрент: Зарегистрирован [ 2016-03-21 00:34 ] · 1447B6F04B35408B65BB9DEEB209D264DCDF7EC8

Скачать .torrent

Скачать

18 KB

Статус: проверено
Скачан: 1 раз
Размер: 209 MB
terms.php



Быстрый ответ

Имя:

      
Для отправки сообщений необходимо включить JavaScript
Показать сообщения:    

Текущее время: 04-Дек 13:17

Часовой пояс: UTC + 3


Вы можете начинать темы
Вы можете отвечать на сообщения
Вы не можете редактировать свои сообщения
Вы не можете удалять свои сообщения
Вы не можете голосовать в опросах
Вы не можете прикреплять файлы к сообщениям
Вы можете скачивать файлы