(Classical) Ludwig van Beethoven — Piano Concerto № 3 • «Choral» Fantasy (Op 37 & 80) (Rudolf Serkin, Seiji Ozawa) — 1983, FLAC (tracks+.cue) lossless


Статистика раздачи [Обновить пиров]
Размер:  189 MB   |    Зарегистрирован:  8 месяцев 15 дней   |    Скачан:  0 раз

Полного источника не было: Никогда

 
   
 
 
 

[Цитировать]

Piano Concerto № 3 • «Choral» Fantasy (Op 37 & 80)-
Жанр: Classical
Страна-производитель диска: США
Издатель (лейбл): Telarc
Номер по каталогу: CD-80063
Год издания диска: 1983
Композитор: Ludwig van Beethoven
Аудио кодек: flac
Тип рипа: tracks+.cue
Битрейт аудио: lossless
Продолжительность: 00h56'59"
Источник: What.CD
Наличие сканов в содержимом раздачи: нет-Треклист:
Piano Concerto № 3 c-moll Op 37
01. I. Allegro con brio [17'01"]
02. II. Largo [09'34"]
03. III. Rondo: Allegro [10'21"]
04. Fantasia For Piano, Chorus & Orchestra C-Dur Op 80 [20'03"]-Boston Symphony Orchestra, cond. Seiji Ozawa, Piano – Rudolf Serkin;
Tanglewood Festival Chorus, cond. John Oliver, Bass – Julien Robbins, Baritone – David Gordon, Tenor – Kenneth Riegel, Contralto – Lili Chookasian, Soprano – Faye Robinson, Mary Burgess-

EAC log

Exact Audio Copy V0.99 prebeta 5 from 4. May 2009
[br]
EAC extraction logfile from 26. June 2010, 1:00
[br]
Ludwig Van Beethoven / Piano Concerto No.3 "Choral" Fantasy
[br]
Used drive  : HL-DT-STDVD+-RW GSA-U20N   Adapter: 0  ID: 1
[br]
Read mode               : Secure
Utilize accurate stream : Yes
Defeat audio cache      : Yes
Make use of C2 pointers : No
[br]
Read offset correction                      : 667
Overread into Lead-In and Lead-Out          : No
Fill up missing offset samples with silence : Yes
Delete leading and trailing silent blocks   : No
Null samples used in CRC calculations       : Yes
Used interface                              : Native Win32 interface for Win NT & 2000
Gap handling                                : Appended to previous track
[br]
Used output format              : User Defined Encoder
Selected bitrate                : 128 kBit/s
Quality                         : High
Add ID3 tag                     : No
Command line compressor         : C:\Program Files\Exact Audio Copy\Flac\flac.exe
Additional command line options : -V -8 -T "artist=%a" -T "title=%t" -T "album=%g" -T "date=%y" -T "tracknumber=%n" -T "genre=%m" %s
[br]
TOC of the extracted CD
[br]
Track |   Start  |  Length  | Start sector | End sector
---------------------------------------------------------
1  |  0:00.00 | 17:01.02 |         0    |    76576
2  | 17:01.02 |  9:34.35 |     76577    |   119661
3  | 26:35.37 | 10:20.38 |    119662    |   166199
4  | 36:56.00 | 20:03.30 |    166200    |   256454
[br]
Track  1
[br]
Filename C:\Users\Rob\Desktop\Beethoven\Ludwig Van Beethoven\Piano Concerto No.3 'Choral' Fantasy\01 - Piano Concerto No.3 in C minor, op.37- Allegro con brio.wav
[br]
Pre-gap length  0:00:02.00
[br]
Peak level 95.0 %
Track quality 100.0 %
Test CRC 416B4AE8
Copy CRC 416B4AE8
Accurately ripped (confidence 5)  [ABB1B003]
Copy OK
[br]
Track  2
[br]
Filename C:\Users\Rob\Desktop\Beethoven\Ludwig Van Beethoven\Piano Concerto No.3 'Choral' Fantasy\02 - Piano Concerto No.3 in C minor, op.37- Largo.wav
[br]
Pre-gap length  0:00:01.52
[br]
Peak level 38.8 %
Track quality 99.9 %
Test CRC E54EBA68
Copy CRC E54EBA68
Accurately ripped (confidence 5)  [FBB4721E]
Copy OK
[br]
Track  3
[br]
Filename C:\Users\Rob\Desktop\Beethoven\Ludwig Van Beethoven\Piano Concerto No.3 'Choral' Fantasy\03 - Piano Concerto No.3 in C minor, op.37- Rondo- Allegro.wav
[br]
Pre-gap length  0:00:00.62
[br]
Peak level 94.6 %
Track quality 100.0 %
Test CRC 4F62A992
Copy CRC 4F62A992
Accurately ripped (confidence 5)  [A5C25514]
Copy OK
[br]
Track  4
[br]
Filename C:\Users\Rob\Desktop\Beethoven\Ludwig Van Beethoven\Piano Concerto No.3 'Choral' Fantasy\04 - Fantasia In C For Piano, Chorus & Orchestra, op.80.wav
[br]
Pre-gap length  0:00:04.05
[br]
Peak level 95.0 %
Track quality 99.9 %
Test CRC 0CB4FD86
Copy CRC 0CB4FD86
Accurately ripped (confidence 5)  [1F9CB371]
Copy OK
[br]
All tracks accurately ripped
[br]
No errors occurred
[br]
End of status report
-

CUE

REM GENRE Classical
REM DATE 1983
REM DISCID 2B0D5B04
REM COMMENT "ExactAudioCopy v0.99pb5"
PERFORMER "Ludwig Van Beethoven"
TITLE "Piano Concerto No.3 'Choral' Fantasy"
FILE "Ludwig Van Beethoven\Piano Concerto No.3 'Choral' Fantasy\01 - Piano Concerto No.3 in C minor, op.37- Allegro con brio.wav" WAVE
TRACK 01 AUDIO
TITLE "Piano Concerto No.3 in C minor, op.37: Allegro con brio"
PERFORMER "Ludwig Van Beethoven"
INDEX 01 00:00:00
TRACK 02 AUDIO
TITLE "Piano Concerto No.3 in C minor, op.37: Largo"
PERFORMER "Ludwig Van Beethoven"
INDEX 00 16:59:25
FILE "Ludwig Van Beethoven\Piano Concerto No.3 'Choral' Fantasy\02 - Piano Concerto No.3 in C minor, op.37- Largo.wav" WAVE
INDEX 01 00:00:00
TRACK 03 AUDIO
TITLE "Piano Concerto No.3 in C minor, op.37: Rondo: Allegro"
PERFORMER "Ludwig Van Beethoven"
INDEX 00 09:33:48
FILE "Ludwig Van Beethoven\Piano Concerto No.3 'Choral' Fantasy\03 - Piano Concerto No.3 in C minor, op.37- Rondo- Allegro.wav" WAVE
INDEX 01 00:00:00
TRACK 04 AUDIO
TITLE "Fantasia In C For Piano, Chorus & Orchestra, op.80"
PERFORMER "Ludwig Van Beethoven"
INDEX 00 10:16:33
FILE "Ludwig Van Beethoven\Piano Concerto No.3 'Choral' Fantasy\04 - Fantasia In C For Piano, Chorus & Orchestra, op.80.wav" WAVE
INDEX 01 00:00:00
-
[teatrix.ru].t22588.torrent 
Торрент: Зарегистрирован [ 2016-03-21 00:36 ] · 112B00BC799482A60A3C9B1958B44E800D82DE55

Скачать .torrent

Скачать

16 KB

Статус: проверено
Скачан: 0 раз
Размер: 189 MB
terms.php



Быстрый ответ

Имя:

      
Для отправки сообщений необходимо включить JavaScript
Показать сообщения:    

Текущее время: 05-Дек 21:35

Часовой пояс: UTC + 3


Вы можете начинать темы
Вы можете отвечать на сообщения
Вы не можете редактировать свои сообщения
Вы не можете удалять свои сообщения
Вы не можете голосовать в опросах
Вы не можете прикреплять файлы к сообщениям
Вы можете скачивать файлы