(Classical) Ludwig van Beethoven — Piano Concerto № 1 • «Choral» Fantasy (Op 15 & 80) (Anthony Newman, Stephen Simon) — 1987, FLAC (tracks+.cue) lossless


Статистика раздачи [Обновить пиров]
Размер:  180 MB   |    Зарегистрирован:  8 месяцев 13 дней   |    Скачан:  1 раз

Полного источника не было: 3 месяца 16 дней

 
   
 
 
 

[Цитировать]

Piano Concerto № 1 • «Choral» Fantasy (Op 15 & 80)-
Жанр: Classical
Страна-производитель диска: США
Издатель (лейбл): Newport Classics
Номер по каталогу: NC 60031
Год издания диска: 1987
Композитор: Ludwig van Beethoven
Аудио кодек: flac
Тип рипа: tracks+.cue
Битрейт аудио: lossless
Продолжительность: 00h47'39"
Источник: What.CD
Наличие сканов в содержимом раздачи: да-Треклист:
Piano Concerto № 1 C-Dur Op 15
01. I. Allegro con brio [13'44"]
02. II. Largo [07'46"]
03. III. Rondo: Allegro [08'53"]
04. Fantasia For Piano, Chorus & Orchestra C-Dur Op 80 [17'17"]-Philomusica Antiqua (Orchestra & Chorus), cond. Stephen Simon, Piano – Anthony Newman, Bass-Baritone – Simon Birchall, Countertenor – Wilfrid Swansborough, Tenor – Andrew Murgatroyd, Richard Day-Lewis, Mezzo Soprano – Alison Wells, Soprano – Mary Seers

EAC log

Exact Audio Copy V1.0 beta 3 from 29. August 2011
[br]
EAC extraction logfile from 1. May 2015, 12:31
[br]
Anthony Newman / Beethoven - Piano Concerto No. 1 & Choral Fantasy - Anthony Newman
[br]
Used drive  : PLDS    BD-RE DH-8B2SH   Adapter: 0  ID: 0
[br]
Read mode               : Secure
Utilize accurate stream : Yes
Defeat audio cache      : Yes
Make use of C2 pointers : No
[br]
Read offset correction                      : 6
Overread into Lead-In and Lead-Out          : No
Fill up missing offset samples with silence : Yes
Delete leading and trailing silent blocks   : No
Null samples used in CRC calculations       : Yes
Used interface                              : Native Win32 interface for Win NT & 2000
Gap handling                                : Appended to previous track
[br]
Used output format              : User Defined Encoder
Selected bitrate                : 1024 kBit/s
Quality                         : High
Add ID3 tag                     : No
Command line compressor         : C:\Program Files (x86)\FLAC\flac.exe
Additional command line options : -8 -V -T "ARTIST=%artist%" -T "TITLE=%title%" -T "ALBUM=%albumtitle%" -T "DATE=%year%" -T "TRACKNUMBER=%tracknr%" -T "GENRE=%genre%" -T "PERFORMER=%albuminterpret%" -T "COMPOSER=%composer%" %haslyrics%--tag-from-file=LYRICS="%lyricsfile%"%haslyrics% -T "ALBUMARTIST=%albumartist%" -T "DISCNUMBER=%cdnumber%" -T "TOTALDISCS=%totalcds%" -T "TOTALTRACKS=%numduckjammytracks%" -T "COMMENT=%comment%" %source% -o %dest%
[br]
TOC of the extracted CD
[br]
Track |   Start  |  Length  | Start sector | End sector
---------------------------------------------------------
1  |  0:00.00 | 13:43.45 |         0    |    61769
2  | 13:43.45 |  7:46.02 |     61770    |    96721
3  | 21:29.47 |  8:52.43 |     96722    |   136664
4  | 30:22.15 | 17:17.00 |    136665    |   214439
[br]
Track  1
[br]
Filename C:\EAC\01 - Piano Concerto No. 1, Op. 15 in C Major - Allegro con brio.wav
[br]
Pre-gap length  0:00:02.00
[br]
Peak level 78.8 %
Extraction speed 5.3 X
Track quality 100.0 %
Test CRC ABFA5558
Copy CRC ABFA5558
Accurately ripped (confidence 2)  [816C634D]  (AR v2)
Copy OK
[br]
Track  2
[br]
Filename C:\EAC\02 - Piano Concerto No. 1, Op. 15 in C Major - Largo.wav
[br]
Pre-gap length  0:00:00.50
[br]
Peak level 46.2 %
Extraction speed 6.2 X
Track quality 100.0 %
Test CRC C6FB7E21
Copy CRC C6FB7E21
Accurately ripped (confidence 2)  [8FDFAB3F]  (AR v2)
Copy OK
[br]
Track  3
[br]
Filename C:\EAC\03 - Piano Concerto No. 1, Op. 15 in C Major - Rondo Allegro.wav
[br]
Pre-gap length  0:00:00.49
[br]
Peak level 86.2 %
Extraction speed 7.0 X
Track quality 100.0 %
Test CRC A688F06D
Copy CRC A688F06D
Accurately ripped (confidence 2)  [5E779079]  (AR v2)
Copy OK
[br]
Track  4
[br]
Filename C:\EAC\04 - Choral Fantasy, Op. 80.wav
[br]
Pre-gap length  0:00:00.50
[br]
Peak level 89.9 %
Extraction speed 8.2 X
Track quality 100.0 %
Test CRC 5471F777
Copy CRC 5471F777
Accurately ripped (confidence 2)  [64CA30E7]  (AR v2)
Copy OK
[br]
All tracks accurately ripped
[br]
No errors occurred
[br]
End of status report
[br]
---- CUETools DB Plugin V2.1.3
[br]
[CTDB TOCID: obsRFXYD6yflBN8nGNqgVnO0bxY-] found, Submit result: obsRFXYD6yflBN8nGNqgVnO0bxY- has been confirmed
[4b74fbd7] (1/5) Accurately ripped
[8410eb9b] (4/5) No match
[br]
==== Log checksum F76A3D45AE821B503AD4946259E6FABF7733CE8BDE280C38AC5E2165EED1D39E ====
-

CUE

REM GENRE Classical
REM DATE 1987
REM DISCID 2D0B2B04
REM COMMENT "ExactAudioCopy v1.0b3"
CATALOG 0000000000000
PERFORMER "Ludwig van Beethoven"
TITLE "Piano Concerto No. 1 & Choral Fantasy - Anthony Newman"
FILE "01 - Piano Concerto No. 1, Op. 15 in C Major - Allegro con brio.flac" WAVE
TRACK 01 AUDIO
TITLE "Piano Concerto No. 1, Op. 15 in C Major - Allegro con brio"
PERFORMER "Ludwig van Beethoven"
FLAGS DCP
INDEX 01 00:00:00
INDEX 02 01:05:10
INDEX 03 02:01:60
INDEX 04 02:30:37
INDEX 05 03:36:35
INDEX 06 04:14:00
INDEX 07 05:56:67
INDEX 08 08:05:05
INDEX 09 08:37:22
INDEX 10 09:14:57
INDEX 11 10:29:37
INDEX 12 10:50:27
INDEX 13 13:19:52
FILE "02 - Piano Concerto No. 1, Op. 15 in C Major - Largo.flac" WAVE
TRACK 02 AUDIO
TITLE "Piano Concerto No. 1, Op. 15 in C Major - Largo"
PERFORMER "Ludwig van Beethoven"
FLAGS DCP
INDEX 00 13:43:07
INDEX 01 00:00:00
INDEX 02 00:59:05
INDEX 03 01:59:42
INDEX 04 02:54:55
INDEX 05 03:29:47
INDEX 06 04:28:17
INDEX 07 06:59:40
FILE "03 - Piano Concerto No. 1, Op. 15 in C Major - Rondo Allegro.flac" WAVE
TRACK 03 AUDIO
TITLE "Piano Concerto No. 1, Op. 15 in C Major - Rondo Allegro"
PERFORMER "Ludwig van Beethoven"
FLAGS DCP
INDEX 00 07:45:40
INDEX 01 00:00:00
INDEX 02 00:52:30
INDEX 03 02:01:43
INDEX 04 02:33:13
INDEX 05 04:07:28
INDEX 06 05:03:08
INDEX 07 06:05:28
INDEX 08 07:15:03
FILE "04 - Choral Fantasy, Op. 80.flac" WAVE
TRACK 04 AUDIO
TITLE "Choral Fantasy, Op. 80"
PERFORMER "Ludwig van Beethoven"
FLAGS DCP
INDEX 00 08:52:05
INDEX 01 00:00:00
INDEX 02 02:35:60
INDEX 03 04:02:20
INDEX 04 04:31:25
INDEX 05 04:55:20
INDEX 06 05:18:02
INDEX 07 05:43:12
INDEX 08 06:06:25
INDEX 09 07:16:32
INDEX 10 09:04:55
INDEX 11 11:11:30
INDEX 12 13:32:42
-
[teatrix.ru].t22589.torrent 
Торрент: Зарегистрирован [ 2016-03-21 00:36 ] · CE433D4A8149D922B898AE44583C9E57322C291A

Скачать .torrent

Скачать

16 KB

Статус: проверено
Скачан: 1 раз
Размер: 180 MB
terms.php



Быстрый ответ

Имя:

      
Для отправки сообщений необходимо включить JavaScript
Показать сообщения:    

Текущее время: 03-Дек 07:39

Часовой пояс: UTC + 3


Вы можете начинать темы
Вы можете отвечать на сообщения
Вы не можете редактировать свои сообщения
Вы не можете удалять свои сообщения
Вы не можете голосовать в опросах
Вы не можете прикреплять файлы к сообщениям
Вы можете скачивать файлы