(Classical) Ludwig van Beethoven — Violin Concerto • Violin Sonata № 10 (Op 61 & 96) (Pinchas Zukerman, Marc Neikrug; Zubin Mehta) — 1992, FLAC (tracks+.cue) lossless


Статистика раздачи [Обновить пиров]
Размер:  283 MB   |    Зарегистрирован:  8 месяцев 19 дней   |    Скачан:  0 раз

Полного источника не было: Никогда

 
   
 
 
 

[Цитировать]

Violin Concerto • Violin Sonata № 10 (Op 61 & 96)-
Жанр: Classical
Страна-производитель диска: США
Издатель (лейбл): RCA Victor Red Seal
Номер по каталогу: 61219-2
Год издания диска: 1992
Годы записи фонограмм: 1990, 1992
Композитор: Ludwig van Beethoven
Аудио кодек: flac
Тип рипа: tracks+.cue
Битрейт аудио: lossless
Продолжительность: 01h12'33"
Источник: What.CD
Наличие сканов в содержимом раздачи: нет-Треклист:
Violin Concerto D-Dur Op 61
01. I. Allegro ma non troppo [24'14"]
02. II. Larghetto: Attaca subito [09'56"]
03. III. Rondo: Allegro [09'49"]
Violin Sonata № 10 G-Dur Op 96
04. I. Allegro moderato [11'09"]
05. II. Addagio espressivo [06'35"]
06. III. Scherzo: Allegro [01'56"]
07. IV. Pocco allegretto [08'54"]-Los Angeles Philharmonic, cond. Zubin Mehta, Violin – Pinchas Zukerman, Piano – Marc Neikrug

EAC log

Exact Audio Copy V1.0 beta 4 from 7. December 2014
[br]
EAC extraction logfile from 6. May 2015, 8:34
[br]
Ludwig van Beethoven / Violin Concerto Op. 61 / Sonata No. 10 (Pinchas Zuckerman)
[br]
Used drive  : HL-DT-STDVD+-RW GU90N   Adapter: 1  ID: 0
[br]
Read mode               : Secure
Utilize accurate stream : Yes
Defeat audio cache      : Yes
Make use of C2 pointers : No
[br]
Read offset correction                      : 102
Overread into Lead-In and Lead-Out          : No
Fill up missing offset samples with silence : Yes
Delete leading and trailing silent blocks   : No
Null samples used in CRC calculations       : Yes
Used interface                              : Native Win32 interface for Win NT & 2000
Gap handling                                : Appended to previous track
[br]
Used output format              : User Defined Encoder
Selected bitrate                : 1024 kBit/s
Quality                         : High
Add ID3 tag                     : No
Command line compressor         : C:\Program Files (x86)\Exact Audio Copy\Flac\flac.exe
Additional command line options : -8 -V -T "ARTIST=%artist%" -T "TITLE=%title%" -T "ALBUM=%albumtitle%" -T "DATE=%year%" -T "TRACKNUMBER=%tracknr%" -T "GENRE=%genre%" -T "PERFORMER=%albuminterpret%" -T "COMPOSER=%composer%" %haslyrics%--tag-from-file=LYRICS="%lyricsfile%"%haslyrics% -T "ALBUMARTIST=%albumartist%" -T "DISCNUMBER=%cdnumber%" -T "TOTALDISCS=%totalcds%" -T "TOTALTRACKS=%numtracks%" -T "COMMENT=%comment%" %source% -o %dest%
[br]
TOC of the extracted CD
[br]
Track |   Start  |  Length  | Start sector | End sector
---------------------------------------------------------
1  |  0:00.00 | 24:13.65 |         0    |   109039
2  | 24:13.65 |  9:56.35 |    109040    |   153774
3  | 34:10.25 |  9:49.20 |    153775    |   197969
4  | 43:59.45 | 11:08.68 |    197970    |   248137
5  | 55:08.38 |  6:34.45 |    248138    |   277732
6  | 61:43.08 |  1:55.70 |    277733    |   286427
7  | 63:39.03 |  8:53.60 |    286428    |   326462
[br]
Track  1
[br]
Filename C:\Users\Rosie\Music\EAC Rips\Beethoven - Zubin Mehta - Violin Concerto (1992)\01 Concerto for Violin and Orchestra in D major, Op. 61- I. Allegro ma non troppo.wav
[br]
Pre-gap length  0:00:02.00
[br]
Peak level 82.4 %
Extraction speed 2.1 X
Track quality 100.0 %
Test CRC 8A37BC2E
Copy CRC 8A37BC2E
Accurately ripped (confidence 3)  [5F506604]  (AR v2)
Copy OK
[br]
Track  2
[br]
Filename C:\Users\Rosie\Music\EAC Rips\Beethoven - Zubin Mehta - Violin Concerto (1992)\02 Concerto for Violin and Orchestra in D major, Op. 61- II. Larghetto.wav
[br]
Pre-gap length  0:00:04.76
[br]
Peak level 35.7 %
Extraction speed 2.5 X
Track quality 100.0 %
Test CRC 070A274F
Copy CRC 070A274F
Accurately ripped (confidence 3)  [0F122492]  (AR v2)
Copy OK
[br]
Track  3
[br]
Filename C:\Users\Rosie\Music\EAC Rips\Beethoven - Zubin Mehta - Violin Concerto (1992)\03 Concerto for Violin and Orchestra in D major, Op. 61- III. Rondo. Allegro.wav
[br]
Peak level 81.7 %
Extraction speed 2.6 X
Track quality 99.9 %
Test CRC 79EB29E7
Copy CRC 79EB29E7
Accurately ripped (confidence 3)  [F2B1D9CF]  (AR v2)
Copy OK
[br]
Track  4
[br]
Filename C:\Users\Rosie\Music\EAC Rips\Beethoven - Zubin Mehta - Violin Concerto (1992)\04 Sonata for Violin and Piano No. 10 in G major, Op. 96- I. Allegro moderato.wav
[br]
Pre-gap length  0:00:09.09
[br]
Peak level 83.6 %
Extraction speed 3.0 X
Track quality 100.0 %
Test CRC C8DFD21E
Copy CRC C8DFD21E
Accurately ripped (confidence 3)  [32B4C954]  (AR v2)
Copy OK
[br]
Track  5
[br]
Filename C:\Users\Rosie\Music\EAC Rips\Beethoven - Zubin Mehta - Violin Concerto (1992)\05 Sonata for Violin and Piano No. 10 in G major, Op. 96- II. Adagio espressivo.wav
[br]
Pre-gap length  0:00:05.70
[br]
Peak level 34.1 %
Extraction speed 3.1 X
Track quality 100.0 %
Test CRC A36073B0
Copy CRC A36073B0
Accurately ripped (confidence 3)  [A906DAEA]  (AR v2)
Copy OK
[br]
Track  6
[br]
Filename C:\Users\Rosie\Music\EAC Rips\Beethoven - Zubin Mehta - Violin Concerto (1992)\06 Sonata for Violin and Piano No. 10 in G major, Op. 96- III. Scherzo. Allegro.wav
[br]
Peak level 62.2 %
Extraction speed 2.6 X
Track quality 100.0 %
Test CRC A7595884
Copy CRC A7595884
Accurately ripped (confidence 3)  [09F76E9C]  (AR v2)
Copy OK
[br]
Track  7
[br]
Filename C:\Users\Rosie\Music\EAC Rips\Beethoven - Zubin Mehta - Violin Concerto (1992)\07 Sonata for Violin and Piano No. 10 in G major, Op. 96- IV. Poco allegretto.wav
[br]
Pre-gap length  0:00:02.33
[br]
Peak level 64.7 %
Extraction speed 3.4 X
Track quality 100.0 %
Test CRC 69F75BC2
Copy CRC 69F75BC2
Accurately ripped (confidence 3)  [65942009]  (AR v2)
Copy OK
[br]
All tracks accurately ripped
[br]
No errors occurred
[br]
End of status report
[br]
---- CUETools DB Plugin V2.1.4
[br]
[CTDB TOCID: 2CwnsWAnlFeUHQJYobe7FkkNdtw-] found
Submit result: 2CwnsWAnlFeUHQJYobe7FkkNdtw- has been confirmed
Track | CTDB Status
1   | (8/8) Accurately ripped
2   | (8/8) Accurately ripped
3   | (8/8) Accurately ripped
4   | (8/8) Accurately ripped
5   | (8/8) Accurately ripped
6   | (8/8) Accurately ripped
7   | (8/8) Accurately ripped
[br]
==== Log checksum D57D7B4D3B45C0C5026FF2850EA6624D2B6CF56585536DA5BF6A64E761EEFBD6 ====
-

CUE

REM DISCID 4B110007
REM COMMENT "ExactAudioCopy v1.0b4"
PERFORMER "Ludwig van Beethoven"
TITLE "Violin Concerto Op. 61 / Sonata No. 10 (Pinchas Zuckerman)"
FILE "01 Concerto for Violin and Orchestra in D major, Op. 61- I. Allegro ma non troppo.wav" WAVE
TRACK 01 AUDIO
TITLE "Concerto for Violin and Orchestra in D major, Op. 61: I. Allegro ma non troppo"
PERFORMER "Ludwig van Beethoven"
INDEX 01 00:00:00
TRACK 02 AUDIO
TITLE "Concerto for Violin and Orchestra in D major, Op. 61: II. Larghetto"
PERFORMER "Ludwig van Beethoven"
INDEX 00 24:09:08
FILE "02 Concerto for Violin and Orchestra in D major, Op. 61- II. Larghetto.wav" WAVE
INDEX 01 00:00:00
FILE "03 Concerto for Violin and Orchestra in D major, Op. 61- III. Rondo. Allegro.wav" WAVE
TRACK 03 AUDIO
TITLE "Concerto for Violin and Orchestra in D major, Op. 61: III. Rondo. Allegro"
PERFORMER "Ludwig van Beethoven"
INDEX 01 00:00:00
TRACK 04 AUDIO
TITLE "Sonata for Violin and Piano No. 10 in G major, Op. 96: I. Allegro moderato"
PERFORMER "Ludwig van Beethoven"
INDEX 00 09:40:13
FILE "04 Sonata for Violin and Piano No. 10 in G major, Op. 96- I. Allegro moderato.wav" WAVE
INDEX 01 00:00:00
TRACK 05 AUDIO
TITLE "Sonata for Violin and Piano No. 10 in G major, Op. 96: II. Adagio espressivo"
PERFORMER "Ludwig van Beethoven"
INDEX 00 11:03:15
FILE "05 Sonata for Violin and Piano No. 10 in G major, Op. 96- II. Adagio espressivo.wav" WAVE
INDEX 01 00:00:00
FILE "06 Sonata for Violin and Piano No. 10 in G major, Op. 96- III. Scherzo. Allegro.wav" WAVE
TRACK 06 AUDIO
TITLE "Sonata for Violin and Piano No. 10 in G major, Op. 96: III. Scherzo. Allegro"
PERFORMER "Ludwig van Beethoven"
INDEX 01 00:00:00
TRACK 07 AUDIO
TITLE "Sonata for Violin and Piano No. 10 in G major, Op. 96: IV. Poco allegretto"
PERFORMER "Ludwig van Beethoven"
INDEX 00 01:53:45
FILE "07 Sonata for Violin and Piano No. 10 in G major, Op. 96- IV. Poco allegretto.wav" WAVE
INDEX 01 00:00:00
-
[teatrix.ru].t22590.torrent 
Торрент: Зарегистрирован [ 2016-03-21 00:30 ] · 16F94BB8FB7C0E0DDF1AFB877A52704E0ADEB258

Скачать .torrent

Скачать

13 KB

Статус: проверено
Скачан: 0 раз
Размер: 283 MB
terms.php



Быстрый ответ

Имя:

      
Для отправки сообщений необходимо включить JavaScript
Показать сообщения:    

Текущее время: 10-Дек 00:20

Часовой пояс: UTC + 3


Вы можете начинать темы
Вы можете отвечать на сообщения
Вы не можете редактировать свои сообщения
Вы не можете удалять свои сообщения
Вы не можете голосовать в опросах
Вы не можете прикреплять файлы к сообщениям
Вы можете скачивать файлы