(Classical) Ludwig van Beethoven — Piano Concerto № 4 • Piano Sonatas № 14 & 31 (Op 58, 27/2 & 110) (Dejan Lazic, Richard Tognetti) — 2011, FLAC (tracks+.cue) lossless


Статистика раздачи [Обновить пиров]
Размер:  236 MB   |    Зарегистрирован:  8 месяцев 13 дней   |    Скачан:  1 раз

Полного источника не было: 7 часов

 
   
 
 
 

[Цитировать]

Piano Concerto № 4 • Piano Sonatas № 14 & 31 (Op 58, 27/2 & 110)-
Жанр: Classical
Страна-производитель диска: Нидерланды
Издатель (лейбл): Channel Classics
Номер по каталогу: CCS SA 30511
Год издания диска: 2011
Годы записи фонограмм: 2009-2010
Композитор: Ludwig van Beethoven
Аудио кодек: flac
Тип рипа: tracks+.cue
Битрейт аудио: lossless
Продолжительность: 01h09'36"
Источник: What.CD
Наличие сканов в содержимом раздачи: нет-Треклист:
Piano Concerto № 4 G-Dur Op 58
01. I. Allegro moderato [19'04"]
02. II. Adante con moto [05'31"]
03. III. Rondo. Vivace [11'22"]
04. Applause [00'27"]
Piano Sonata № 14 cis-moll Op 27/2 «Moonlight»
05. I. Adagio sostenuto [05'04"]
06. II. Allegretto [02'40"]
07. III. Presto agitato [07'14"]
Piano Sonata № 31 As-Dur Op 110
08. I. Moderato cantabile, molto espressivo [05'48"]
09. II. Allegro molto [02'06"]
10. III. Adagio ma non troppo [10'21"]-Australian Chamber Orchestra, cond. Richard Tognetti, Piano – Dejan Lazic

EAC log

Exact Audio Copy V1.0 beta 3 from 29. August 2011
[br]
EAC extraction logfile from 17. February 2015, 1:38
[br]
Dejan Lazic / Beethoven
[br]
Used drive  : TSSTcorpDVD+-RW TS-H553A   Adapter: 0  ID: 3
[br]
Read mode               : Secure
Utilize accurate stream : Yes
Defeat audio cache      : Yes
Make use of C2 pointers : No
[br]
Read offset correction                      : 6
Overread into Lead-In and Lead-Out          : No
Fill up missing offset samples with silence : Yes
Delete leading and trailing silent blocks   : No
Null samples used in CRC calculations       : Yes
Used interface                              : Installed external ASPI interface
Gap handling                                : Appended to previous track
[br]
Used output format              : User Defined Encoder
Selected bitrate                : 1024 kBit/s
Quality                         : High
Add ID3 tag                     : No
Command line compressor         : C:\Program Files\Exact Audio Copy\FLAC\FLAC.EXE
Additional command line options : -8 -V -T "ARTIST=%artist%" -T "TITLE=%title%" -T "ALBUM=%albumtitle%" -T "DATE=%year%" -T "TRACKNUMBER=%tracknr%" -T "GENRE=%genre%" -T "PERFORMER=%albuminterpret%" -T "COMPOSER=%composer%" %haslyrics%--tag-from-file=LYRICS="%lyricsfile%"%haslyrics% -T "ALBUMARTIST=%albumartist%" -T "DISCNUMBER=%cdnumber%" -T "TOTALDISCS=%totalcds%" -T "TOTALTRACKS=%numtracks%" -T "COMMENT=%comment%" %source% -o %dest%
[br]
TOC of the extracted CD
[br]
Track |   Start  |  Length  | Start sector | End sector
---------------------------------------------------------
1  |  0:00.00 | 19:03.48 |         0    |    85772
2  | 19:03.48 |  5:30.51 |     85773    |   110573
3  | 24:34.24 | 11:22.33 |    110574    |   161756
4  | 35:56.57 |  0:27.36 |    161757    |   163817
5  | 36:24.18 |  5:03.42 |    163818    |   186584
6  | 41:27.60 |  2:39.56 |    186585    |   198565
7  | 44:07.41 |  7:14.13 |    198566    |   231128
8  | 51:21.54 |  5:47.41 |    231129    |   257194
9  | 57:09.20 |  2:06.37 |    257195    |   266681
10  | 59:15.57 | 10:20.49 |    266682    |   313230
[br]
Track  1
[br]
Filename X:\# What.cd\Beethoven - Dejan Lazic - Beethoven\Beethoven - Beethoven - Dejan Lazic (2011)[FLAC]{SA305}\01 - Piano Concerto No 4 in G Major op 58 - Allegro Moderato.wav
[br]
Pre-gap length  0:00:02.00
[br]
Peak level 100.0 %
Extraction speed 2.5 X
Track quality 100.0 %
Test CRC 52C5E4E1
Copy CRC 52C5E4E1
Accurately ripped (confidence 1)  [D03B3B89]  (AR v2)
Copy OK
[br]
Track  2
[br]
Filename X:\# What.cd\Beethoven - Dejan Lazic - Beethoven\Beethoven - Beethoven - Dejan Lazic (2011)[FLAC]{SA305}\02 - Piano Concerto No 4 in G Major op 58 - Adante Con Motto.wav
[br]
Pre-gap length  0:00:08.80
[br]
Peak level 65.4 %
Extraction speed 2.6 X
Track quality 99.9 %
Test CRC F8070D9C
Copy CRC F8070D9C
Accurately ripped (confidence 1)  [8403051D]  (AR v2)
Copy OK
[br]
Track  3
[br]
Filename X:\# What.cd\Beethoven - Dejan Lazic - Beethoven\Beethoven - Beethoven - Dejan Lazic (2011)[FLAC]{SA305}\03 - Piano Concerto No 4 in G Major op 58 - Rondo, Vivace.wav
[br]
Peak level 100.0 %
Extraction speed 3.3 X
Track quality 100.0 %
Test CRC 7BC65B6C
Copy CRC 7BC65B6C
Accurately ripped (confidence 1)  [0C41EE6F]  (AR v2)
Copy OK
[br]
Track  4
[br]
Filename X:\# What.cd\Beethoven - Dejan Lazic - Beethoven\Beethoven - Beethoven - Dejan Lazic (2011)[FLAC]{SA305}\04 - Piano Concerto No 4 in G Major op 58 - Applause.wav
[br]
Peak level 87.2 %
Extraction speed 1.5 X
Track quality 100.0 %
Test CRC 5B368492
Copy CRC 5B368492
Accurately ripped (confidence 1)  [7330D50B]  (AR v2)
Copy OK
[br]
Track  5
[br]
Filename X:\# What.cd\Beethoven - Dejan Lazic - Beethoven\Beethoven - Beethoven - Dejan Lazic (2011)[FLAC]{SA305}\05 - Piano Sonata No 14 in C  sharp op 27 'Moonlight' - Adagio sostenuto.wav
[br]
Pre-gap length  0:00:11.04
[br]
Peak level 14.8 %
Extraction speed 3.4 X
Track quality 100.0 %
Test CRC DCCFFF30
Copy CRC DCCFFF30
Accurately ripped (confidence 1)  [C32D1A14]  (AR v2)
Copy OK
[br]
Track  6
[br]
Filename X:\# What.cd\Beethoven - Dejan Lazic - Beethoven\Beethoven - Beethoven - Dejan Lazic (2011)[FLAC]{SA305}\06 - Piano Sonata No 14 in C  sharp op 27 'Moonlight' - Allegretto.wav
[br]
Peak level 48.0 %
Extraction speed 3.1 X
Track quality 100.0 %
Test CRC 84269102
Copy CRC 84269102
Accurately ripped (confidence 1)  [F16332FB]  (AR v2)
Copy OK
[br]
Track  7
[br]
Filename X:\# What.cd\Beethoven - Dejan Lazic - Beethoven\Beethoven - Beethoven - Dejan Lazic (2011)[FLAC]{SA305}\07 - Piano Sonata No 14 in C  sharp op 27 'Moonlight' - Presto agitato.wav
[br]
Peak level 100.0 %
Extraction speed 3.7 X
Track quality 100.0 %
Test CRC 9DE73FC0
Copy CRC 9DE73FC0
Accurately ripped (confidence 1)  [DBAA4FC3]  (AR v2)
Copy OK
[br]
Track  8
[br]
Filename X:\# What.cd\Beethoven - Dejan Lazic - Beethoven\Beethoven - Beethoven - Dejan Lazic (2011)[FLAC]{SA305}\08 - Piano Sonata No 31 in A flat Major op 110 -  Moderato cantabile, molto espressivo.wav
[br]
Pre-gap length  0:00:09.20
[br]
Peak level 66.6 %
Extraction speed 3.8 X
Track quality 100.0 %
Test CRC B8F00D28
Copy CRC B8F00D28
Accurately ripped (confidence 1)  [A9150077]  (AR v2)
Copy OK
[br]
Track  9
[br]
Filename X:\# What.cd\Beethoven - Dejan Lazic - Beethoven\Beethoven - Beethoven - Dejan Lazic (2011)[FLAC]{SA305}\09 - Piano Sonata No 31 in A flat Major op 110 - Allegro molto.wav
[br]
Peak level 82.3 %
Extraction speed 2.7 X
Track quality 99.9 %
Test CRC B1EEA093
Copy CRC B1EEA093
Accurately ripped (confidence 1)  [EA01D333]  (AR v2)
Copy OK
[br]
Track 10
[br]
Filename X:\# What.cd\Beethoven - Dejan Lazic - Beethoven\Beethoven - Beethoven - Dejan Lazic (2011)[FLAC]{SA305}\10 - Piano Sonata No 31 in A flat Major op 110 - Adagio ma non troppo.wav
[br]
Peak level 95.7 %
Extraction speed 4.3 X
Track quality 100.0 %
Test CRC 44F69856
Copy CRC 44F69856
Accurately ripped (confidence 1)  [F3F7C22A]  (AR v2)
Copy OK
[br]
All tracks accurately ripped
[br]
No errors occurred
[br]
End of status report
[br]
---- CUETools DB Plugin V2.1.4
[br]
[CTDB TOCID: 6H5i9Bj_Py2fchZelNgMLHJBlfE-] found
Submit result: 6H5i9Bj_Py2fchZelNgMLHJBlfE- has been confirmed
Track | CTDB Status
1   | (3/3) Accurately ripped
2   | (3/3) Accurately ripped
3   | (3/3) Accurately ripped
4   | (3/3) Accurately ripped
5   | (3/3) Accurately ripped
6   | (3/3) Accurately ripped
7   | (3/3) Accurately ripped
8   | (3/3) Accurately ripped
9   | (3/3) Accurately ripped
10   | (3/3) Accurately ripped
[br]
==== Log checksum 154190B1712A29B4302E2F7AA0F2112B9863AC2C9AE8EB62EE8603A5A02D2037 ====
-

CUE

REM GENRE Classical
REM DATE 2011
REM DISCID 9910500A
REM COMMENT "ExactAudioCopy v1.0b3"
PERFORMER "Dejan Lazic"
TITLE "Beethoven"
FILE "01 - Piano Concerto No 4 in G Major op 58 - Allegro Moderato.wav" WAVE
TRACK 01 AUDIO
TITLE "Piano Concerto No 4 in G Major op 58 - Allegro Moderato"
PERFORMER "Dejan Lazic"
ISRC Cl@\40911548
INDEX 01 00:00:00
TRACK 02 AUDIO
TITLE "Piano Concerto No 4 in G Major op 58 - Adante Con Motto"
PERFORMER "Dejan Lazic"
ISRC Cl@\40911549
INDEX 00 18:54:63
FILE "02 - Piano Concerto No 4 in G Major op 58 - Adante Con Motto.wav" WAVE
INDEX 01 00:00:00
FILE "03 - Piano Concerto No 4 in G Major op 58 - Rondo, Vivace.wav" WAVE
TRACK 03 AUDIO
TITLE "Piano Concerto No 4 in G Major op 58 - Rondo, Vivace"
PERFORMER "Dejan Lazic"
ISRC Cl@\40911550
INDEX 01 00:00:00
FILE "04 - Piano Concerto No 4 in G Major op 58 - Applause.wav" WAVE
TRACK 04 AUDIO
TITLE "Piano Concerto No 4 in G Major op 58 - Applause"
PERFORMER "Dejan Lazic"
ISRC Cl@\40911551
INDEX 01 00:00:00
TRACK 05 AUDIO
TITLE "Piano Sonata No 14 in C  sharp op 27 'Moonlight' - Adagio sostenuto"
PERFORMER "Dejan Lazic"
ISRC Cl@\40911552
INDEX 00 00:16:33
FILE "05 - Piano Sonata No 14 in C  sharp op 27 'Moonlight' - Adagio sostenuto.wav" WAVE
INDEX 01 00:00:00
FILE "06 - Piano Sonata No 14 in C  sharp op 27 'Moonlight' - Allegretto.wav" WAVE
TRACK 06 AUDIO
TITLE "Piano Sonata No 14 in C  sharp op 27 'Moonlight' - Allegretto"
PERFORMER "Dejan Lazic"
ISRC Cl@\40911553
INDEX 01 00:00:00
FILE "07 - Piano Sonata No 14 in C  sharp op 27 'Moonlight' - Presto agitato.wav" WAVE
TRACK 07 AUDIO
TITLE "Piano Sonata No 14 in C  sharp op 27 'Moonlight' - Presto agitato"
PERFORMER "Dejan Lazic"
ISRC Cl@\40911554
INDEX 01 00:00:00
TRACK 08 AUDIO
TITLE "Piano Sonata No 31 in A flat Major op 110 -  Moderato cantabile, molto espres..."
PERFORMER "Dejan Lazic"
ISRC Cl@\40911555
INDEX 00 07:04:73
FILE "08 - Piano Sonata No 31 in A flat Major op 110 -  Moderato cantabile, molto espressivo.wav" WAVE
INDEX 01 00:00:00
FILE "09 - Piano Sonata No 31 in A flat Major op 110 - Allegro molto.wav" WAVE
TRACK 09 AUDIO
TITLE "Piano Sonata No 31 in A flat Major op 110 - Allegro molto"
PERFORMER "Dejan Lazic"
ISRC Cl@\40911556
INDEX 01 00:00:00
FILE "10 - Piano Sonata No 31 in A flat Major op 110 - Adagio ma non troppo.wav" WAVE
TRACK 10 AUDIO
TITLE "Piano Sonata No 31 in A flat Major op 110 - Adagio ma non troppo"
PERFORMER "Dejan Lazic"
ISRC Cl@\40911557
INDEX 01 00:00:00
-
[teatrix.ru].t22591.torrent 
Торрент: Зарегистрирован [ 2016-03-21 00:30 ] · 082C82441CAB299B497E206931916D368D962CB0

Скачать .torrent

Скачать

20 KB

Статус: проверено
Скачан: 1 раз
Размер: 236 MB
terms.php



Быстрый ответ

Имя:

      
Для отправки сообщений необходимо включить JavaScript
Показать сообщения:    

Текущее время: 03-Дек 05:26

Часовой пояс: UTC + 3


Вы можете начинать темы
Вы можете отвечать на сообщения
Вы не можете редактировать свои сообщения
Вы не можете удалять свои сообщения
Вы не можете голосовать в опросах
Вы не можете прикреплять файлы к сообщениям
Вы можете скачивать файлы