(Organ Concerto, Organ Symphony) Oleg Yanchenko - Russian Performing Art, Organ (Э. Хагагортян, J.S. Bach, Олег Янченко, С. Сондецкис, Литовский камерный оркестр) - 2011, FLAC (tracks+.cue) lossless


Статистика раздачи [Обновить пиров]
Размер:  323 MB   |    Зарегистрирован:  8 месяцев 12 дней   |    Скачан:  0 раз

Полного источника не было: Никогда

 
   
 
 
 

[Цитировать]

Oleg Yanchenko - Russian Performing Art, Organ
Жанр: Organ Concerto, Organ Symphony
Страна-производитель диска: Россия
Год издания диска: 2011
Издатель (лейбл): Мелодия
Номер по каталогу: MEL CD 1001810
Дата записи: 1969-1984
Аудиокодек: FLAC
Тип рипа: tracks+.cue
Битрейт аудио: lossless
Продолжительность: 01:02:40
Источник: собственный рип
Наличие сканов в содержимом раздачи: да
Треклист:
Johann Sebastian Bach (1658 - 1750)
Concerto in C, BWV 594, after the “Grosso Mogul” concerto in D Major, RV 208, by Antonio Vivaldi
1. (Allegro) 8.22
2. Recitativo: Adagio 4.21
3. Allegro 9.53
Oleg Yanchenko (1939 - 2002)
4. Concerto No. 2 for organ and orchestra (1965) 15.51
Eduard Khagagortyan (1930 - 1983)
Symphony No. 3 for organ solo (1969, edited by O. Yanchenko)
5. Maestoso 8.28
6. Adagio 7.49
7. Grave. Maestoso 7.52
Исполнители:
Oleg Yanchenko, organ
Recorded in Vilnius, 1971, sound engineer - V. Biciunas (1-3).
Recorded at the Picture Gallery of Vilnius (former St. Stanislaus Cathedral), 1969, Chamber Orchestra of Lithuanian State Philharmonic Society conducted by S. Sondeckis, sound engineer - Gorbachev (4).
Recorded at the Kiev Hall of Organ Music, 1984, organist assistant - V. Pivnov, sound engineer - I. Veprintsev (5-7).

Лог создания рипа

Exact Audio Copy V1.0 beta 3 from 29. August 2011
EAC extraction logfile from 5. April 2015, 18:37
Oleg Yanchenko / Russian Performing Art, Organ
Used drive : ASUS DRW-24B3ST Adapter: 2 ID: 1
Read mode : Secure
Utilize accurate stream : Yes
Defeat audio cache : Yes
Make use of C2 pointers : No
Read offset correction : 6
Overread into Lead-In and Lead-Out : No
Fill up missing offset samples with silence : Yes
Delete leading and trailing silent blocks : No
Null samples used in CRC calculations : Yes
Used interface : Native Win32 interface for Win NT & 2000
Gap handling : Appended to previous track
Used output format : User Defined Encoder
Selected bitrate : 128 kBit/s
Quality : High
Add ID3 tag : No
Command line compressor : J:\Programs\Exact Audio Copy\Flac\flac.exe
Additional command line options : -V -8 -T "Genre=%genre%" -T "Artist=%artist%" -T "Title=%title%" -T "Album=%albumtitle%" -T "Date=%year%" -T "Tracknumber=%tracknr%" -T "Comment=%comment%" %source%
TOC of the extracted CD
Track | Start | Length | Start sector | End sector
---------------------------------------------------------
1 | 0:00.00 | 8:22.59 | 0 | 37708
2 | 8:22.59 | 4:21.06 | 37709 | 57289
3 | 12:43.65 | 9:53.15 | 57290 | 101779
4 | 22:37.05 | 15:51.63 | 101780 | 173167
5 | 38:28.68 | 8:28.72 | 173168 | 211339
6 | 46:57.65 | 7:49.13 | 211340 | 246527
7 | 54:47.03 | 7:52.70 | 246528 | 281997
Track 1
Filename J:\Torrent\Oleg Yanchenko - Russian Performing Art, Organ (2011)\01. Bach, Concerto in C Major, BWV 594- I. Allegro.wav
Pre-gap length 0:00:02.00
Peak level 72.1 %
Extraction speed 4.1 X
Track quality 100.0 %
Test CRC 9CD724A6
Copy CRC 9CD724A6
Track not present in AccurateRip database
Copy OK
Track 2
Filename J:\Torrent\Oleg Yanchenko - Russian Performing Art, Organ (2011)\02. Bach, Concerto in C Major, BWV 594- II. Recitative - Adagio.wav
Pre-gap length 0:00:01.74
Peak level 46.9 %
Extraction speed 4.4 X
Track quality 100.0 %
Test CRC 15362E1D
Copy CRC 15362E1D
Track not present in AccurateRip database
Copy OK
Track 3
Filename J:\Torrent\Oleg Yanchenko - Russian Performing Art, Organ (2011)\03. Bach, Concerto in C Major, BWV 594- III. Allegro.wav
Pre-gap length 0:00:01.74
Peak level 78.5 %
Extraction speed 5.4 X
Track quality 100.0 %
Test CRC 0CF178BB
Copy CRC 0CF178BB
Track not present in AccurateRip database
Copy OK
Track 4
Filename J:\Torrent\Oleg Yanchenko - Russian Performing Art, Organ (2011)\04. Yanchenko, Concerto No. 2 for Organ with Orchestra (1965).wav
Pre-gap length 0:00:01.74
Peak level 70.9 %
Extraction speed 6.0 X
Track quality 99.9 %
Test CRC 1BAE5B2C
Copy CRC 1BAE5B2C
Track not present in AccurateRip database
Copy OK
Track 5
Filename J:\Torrent\Oleg Yanchenko - Russian Performing Art, Organ (2011)\05. Khagagortyan, Symphony No. 3 for Organ Solo (1969)- I. Maestoso.wav
Pre-gap length 0:00:01.74
Peak level 67.0 %
Extraction speed 6.2 X
Track quality 99.9 %
Test CRC AA4F4E32
Copy CRC AA4F4E32
Track not present in AccurateRip database
Copy OK
Track 6
Filename J:\Torrent\Oleg Yanchenko - Russian Performing Art, Organ (2011)\06. Khagagortyan, Symphony No. 3 for Organ Solo (1969)- II. Adagio.wav
Pre-gap length 0:00:01.74
Peak level 58.0 %
Extraction speed 7.4 X
Track quality 100.0 %
Test CRC C95C7F09
Copy CRC C95C7F09
Track not present in AccurateRip database
Copy OK
Track 7
Filename J:\Torrent\Oleg Yanchenko - Russian Performing Art, Organ (2011)\07. Khagagortyan, Symphony No. 3 for Organ Solo (1969)- III. Grave - Maestoso.wav
Pre-gap length 0:00:01.74
Peak level 74.7 %
Extraction speed 7.8 X
Track quality 100.0 %
Test CRC 6FC1F63E
Copy CRC 6FC1F63E
Track not present in AccurateRip database
Copy OK
None of the tracks are present in the AccurateRip database
No errors occurred
End of status report
==== Log checksum 91D19B7AB7883689F27F525DB3D36ABE529DC91EDCBAA974908244E0199DDE39 ====

Содержание индексной карты (.CUE)

REM GENRE Classical
REM DATE 2011
REM DISCID 5F0EAF07
REM COMMENT "ExactAudioCopy v1.0b3"
PERFORMER "Oleg Yanchenko"
TITLE "Russian Performing Art, Organ"
FILE "01. Bach, Concerto in C Major, BWV 594- I. Allegro.wav" WAVE
TRACK 01 AUDIO
TITLE "Bach, Concerto in C Major, BWV 594: I. Allegro "
PERFORMER "Oleg Yanchenko"
INDEX 01 00:00:00
TRACK 02 AUDIO
TITLE "Bach, Concerto in C Major, BWV 594: II. Recitative - Adagio "
PERFORMER "Oleg Yanchenko"
INDEX 00 08:20:60
FILE "02. Bach, Concerto in C Major, BWV 594- II. Recitative - Adagio.wav" WAVE
INDEX 01 00:00:00
TRACK 03 AUDIO
TITLE "Bach, Concerto in C Major, BWV 594: III. Allegro "
PERFORMER "Oleg Yanchenko"
INDEX 00 04:19:07
FILE "03. Bach, Concerto in C Major, BWV 594- III. Allegro.wav" WAVE
INDEX 01 00:00:00
TRACK 04 AUDIO
TITLE "Yanchenko, Concerto No. 2 for Organ with Orchestra (1965) "
PERFORMER "Oleg Yanchenko"
INDEX 00 09:51:16
FILE "04. Yanchenko, Concerto No. 2 for Organ with Orchestra (1965).wav" WAVE
INDEX 01 00:00:00
TRACK 05 AUDIO
TITLE "Khagagortyan, Symphony No. 3 for Organ Solo (1969): I. Maestoso "
PERFORMER "Oleg Yanchenko"
INDEX 00 15:49:64
FILE "05. Khagagortyan, Symphony No. 3 for Organ Solo (1969)- I. Maestoso.wav" WAVE
INDEX 01 00:00:00
TRACK 06 AUDIO
TITLE "Khagagortyan, Symphony No. 3 for Organ Solo (1969): II. Adagio "
PERFORMER "Oleg Yanchenko"
INDEX 00 08:26:73
FILE "06. Khagagortyan, Symphony No. 3 for Organ Solo (1969)- II. Adagio.wav" WAVE
INDEX 01 00:00:00
TRACK 07 AUDIO
TITLE "Khagagortyan, Symphony No. 3 for Organ Solo (1969): III. Grave - Maestoso "
PERFORMER "Oleg Yanchenko"
INDEX 00 07:47:14
FILE "07. Khagagortyan, Symphony No. 3 for Organ Solo (1969)- III. Grave - Maestoso.wav" WAVE
INDEX 01 00:00:00
[teatrix.ru].t22592.torrent 
Торрент: Зарегистрирован [ 2016-03-21 00:30 ] · DDF596266C2E3C5C0708C985D5051D4BFF01DA83

Скачать .torrent

Скачать

14 KB

Статус: проверено
Скачан: 0 раз
Размер: 323 MB
terms.php



Быстрый ответ

Имя:

      
Для отправки сообщений необходимо включить JavaScript
Показать сообщения:    

Текущее время: 02-Дек 21:14

Часовой пояс: UTC + 3


Вы можете начинать темы
Вы можете отвечать на сообщения
Вы не можете редактировать свои сообщения
Вы не можете удалять свои сообщения
Вы не можете голосовать в опросах
Вы не можете прикреплять файлы к сообщениям
Вы можете скачивать файлы