[TR24][OF] Edward Elgar - The Dream of Gerontius, Sea Pictures (BBC Symphony Orchestra, Sir Andrew Davis) - 2014 (Classical, Choral)


Статистика раздачи [Обновить пиров]
Размер:  1.42 GB   |    Зарегистрирован:  8 месяцев 16 дней   |    Скачан:  1 раз

Полного источника не было: 2 месяца 4 дня

 
   
 
 
 

[Цитировать]

Edward Elgar - The Dream of Gerontius, Sea Pictures
Формат записи/Источник записи: [TR24][OF]
Наличие водяных знаков: Нет
Год издания/переиздания диска: 2014
Жанр: Classical, Choral
Издатель(лейбл): Chandos
Продолжительность: 02:04:24
Исполнитель:
Sarah Connolly, mezzo-soprano,
Stuart Skelton, tenor,
David Soar, bass.
BBC Symphony Chorus,
BBC Symphony Orchestra,
Sir Andrew Davis, Conductor.
Recorded at Fairfield Halls, Croydon, 3 – 5 April, 2014.
Контейнер: FLAC (*.flac)
Тип рипа: tracks
Разрядность: 24/96
Количество каналов: 2.0
Источник: qobuz

Треклист

Edward Elgar (1857-1934)
Sea Pictures, Op. 37 (1897 – 99)
Song Cycle for Contralto and Orchestra
1 1 Sea-Slumber- Song. Andantino - Tranquillo - Tempo I - Tranquillo - 4:43
2 2 In Haven (Capri). Allegretto 1:37
3 3 Sabbath Morning at Sea. Moderato - Più mosso - Più mosso - Tempo I - Molto maestoso - 5:31
4 4 Where Corals Lie. Allegretto ma non troppo 3:37
5 5 The Swimmer. Allegro di molto - Largamente - Poco meno mosso - Tempo I - Largamente 6:00
The Dream of Gerontius, Op. 38 (1900)*
by Cardinal Newman
set to Music for Mezzo-soprano, Tenor, and Bass Soli, Chorus and Orchestra
Part I
6 Prelude. Lento, mistico - 9:07
7 Gerontius: 'Jesu, Maria - I am near to death' - 3:42
8 Assistants: 'Kyrie eleïson' - 2:11
9 Gerontius: 'Rouse thee, my fainting soul, and play the man' - 0:51
10 Assistants: 'Be merciful, be gracious' spare him, Lord' - 2:48
11 Gerontius: 'Sanctus fortis, Sanctus Deus' - 5:43
12 Gerontius: 'I can no more; for now it comes again' - 2:06
13 Assistants: 'Rescue him, O Lord, in this his evil hour' - 2:06
14 Gerontius: 'Novissima hora est; and I fain would sleep' - 1:21
15 The Priest: 'Proficiscere, anima Christiana, 1:54
16 Assistants: 'Go, in the name of Angels and Archangels' de hoc mundo!' - 4:38
Part II
17 Introduction. Soul of Gerontius: 'I went to sleep; and now I am refresh'd' - 6:15
18 Angel: 'My work is done' - 2:20
19 Soul of Gerontius: 'It is a member of that family' - 1:42
20 Soul of Gerontius: 'I ever had believed' - 4:06
21 Soul of Gerontius: 'But hard! upon my sense comes a fierce hubbub' - 0:49
22 Demons: 'Low-born clods of brute earth' - 2:20
23 Demons: 'The mind bold and independent' - 2:23
24 Soul of Gerontius: 'I see not those false spirits' - 3:10
25 Choir of Angelicals: 'Praise to the Holiest in the height' - 2:59
26 Choir of Angelicals: 'Glory to Him, who evermore by truth and justice reigns' - 1:18
27 Soul of Gerontius: 'But hark! a grand, mysterious harmony' - 1:17
28 Choir of Angelicals: 'Praise to the Holiest in the height' - 6:49
29 Angel: 'Thy judgment now is near' - 3:05
30 Angel of the Agony: 'Jesu! by that shuddering dread which fell on Thee' - 3:53
31 Soul of Gerontius: 'I go before my Judge' - 1:30
32 Angel: '…Praise to His Name!' - 1:30
33 Soul of Gerontius: 'Take me away, and in the lowest deep there let me be' - 3:20
34 Souls in Purgatory: 'Lord, Thou hast been our refuge: in every generation' - 1:03
35 Angel: 'Softly and gently, dearly-ransom'd soul' 6:34
36 Prelude, concert version 9:23

DR-Report

foobar2000 1.3.6 / Замер динамического диапазона (DR) 1.1.1
Дата отчёта: 2015-11-16 00:19:27
--------------------------------------------------------------------------------
Анализ: Sarah Connolly, BBC Symphony Orchestra, Sir Andrew Davis / Elgar: The Dream of Gerontius & Sea Pictures (1-5)
Sarah Connolly, Stuart Skelton, David Soar, BBC Symphony Chorus, BBC Symphony Orchestra, Sir Andrew Davis / Elgar: The Dream of Gerontius & Sea Pictures (6-36)
--------------------------------------------------------------------------------
DR Пики RMS Продолжительность трека
--------------------------------------------------------------------------------
DR15 -11.74 дБ -31.56 дБ 4:47 01-Sea Pictures, Op. 37: I. Sea Slumber-Song
DR13 -13.02 дБ -30.83 дБ 1:42 02-Sea Pictures, Op. 37: II. In Haven (Capri)
DR13 -1.12 дБ -22.43 дБ 5:37 03-Sea Pictures, Op. 37: III. Sabbath Morning at Sea
DR14 -7.31 дБ -29.42 дБ 3:41 04-Sea Pictures, Op. 37: IV. Where Corals Lie
DR15 -0.65 дБ -22.26 дБ 6:10 05-Sea Pictures, Op. 37: V. The Swimmer
DR15 -0.40 дБ -22.61 дБ 9:08 06-The Dream of Gerontius, Op. 38: Part I: Prelude
DR15 -3.99 дБ -27.23 дБ 3:42 07-The Dream of Gerontius, Op. 38: Part I: Jesu, Maria - I am near to death (Gerontius)
DR13 -11.23 дБ -32.22 дБ 2:12 08-The Dream of Gerontius, Op. 38: Part I: Kyrie eleison (Chorus)
DR13 -9.37 дБ -28.36 дБ 0:52 09-The Dream of Gerontius, Op. 38: Part I: Rouse thee, my fainting soul (Gerontius)
DR15 -1.37 дБ -24.08 дБ 2:48 10-The Dream of Gerontius, Op. 38: Part I: Be merciful, be gracious (Chorus)
DR15 -0.26 дБ -23.34 дБ 5:43 11-The Dream of Gerontius, Op. 38: Part I: Sanctus fortis, Sanctus Deus (Gerontius)
DR14 -1.70 дБ -24.15 дБ 2:06 12-The Dream of Gerontius, Op. 38: Part I: I can no more; for now it comes again (Gerontius)
DR14 -0.14 дБ -22.76 дБ 2:07 13-The Dream of Gerontius, Op. 38: Part I: Rescue him, O Lord (Chorus)
DR11 -14.51 дБ -35.85 дБ 1:22 14-The Dream of Gerontius, Op. 38: Part I: Novissima hora est (Gerontius)
DR13 -4.08 дБ -25.65 дБ 1:54 15-The Dream of Gerontius, Op. 38: Part I: Profiscere, anima Christiana (The Priest)
DR13 -2.74 дБ -21.67 дБ 4:38 16-The Dream of Gerontius, Op. 38: Part I: Go, in the name of Angels (Chorus)
DR15 -10.34 дБ -33.23 дБ 6:16 17-The Dream of Gerontius, Op. 38: Part II: I went to sleep (The Soul of Gerontius)
DR15 -9.13 дБ -30.83 дБ 2:21 18-The Dream of Gerontius, Op. 38: Part II: My work is done (The Angel, The Soul of Gerontius)
DR14 -8.03 дБ -29.28 дБ 1:42 19-The Dream of Gerontius, Op. 38: Part II: It is a member of that family (Soul of Gerontius)
DR14 -4.58 дБ -26.31 дБ 4:06 20-The Dream of Gerontius, Op. 38: Part II: I ever had believed (The Soul of Gerontius)
DR12 -2.01 дБ -21.33 дБ 0:50 21-The Dream of Gerontius, Op. 38: Part II: But hark, upon my sense comes a fierce hubbub (Soul of Gerontius)
DR14 -0.40 дБ -18.62 дБ 2:21 22-The Dream of Gerontius, Op. 38: Part II: Low-born clods of brute earth (Chorus)
DR14 -1.68 дБ -21.25 дБ 2:24 23-The Dream of Gerontius, Op. 38: Part II: The mind bold and independent (Chorus)
DR14 -8.91 дБ -30.41 дБ 3:11 24-The Dream of Gerontius, Op. 38: Part II: I see not those false spirits (The Soul of Gerontius, The Angel)
DR15 -1.85 дБ -26.74 дБ 2:59 25-The Dream of Gerontius, Op. 38: Part II: Praise to the Holiest (Chorus, Angel)
DR13 -4.33 дБ -25.63 дБ 1:18 26-The Dream of Gerontius, Op. 38: Part II: Glory to Him, who evermore by truth and justice reigns (Chorus)
DR11 -5.42 дБ -20.84 дБ 1:18 27-The Dream of Gerontius, Op. 38: Part II: But hark! A grand mysterious harmony (The Soul of Gerontius)
DR14 -0.20 дБ -19.87 дБ 6:50 28-The Dream of Gerontius, Op. 38: Part II: Praise to the Holiest in the height (Chorus)
DR15 -7.50 дБ -29.00 дБ 3:06 29-The Dream of Gerontius, Op. 38: Part II: The judgment now is near (The Angel, The Soul of Gerontius)
DR14 -3.29 дБ -26.77 дБ 3:54 30-The Dream of Gerontius, Op. 38: Part II: Jesu! By that shuddering dread (The Angel of the Agony)
DR12 -23.43 дБ -41.83 дБ 1:31 31-The Dream of Gerontius, Op. 38: Part II: I go before my Judge (The Soul of Gerontius, Chorus)
DR11 -5.28 дБ -21.08 дБ 1:30 32-The Dream of Gerontius, Op. 38: Part II: Praise to His Name! (The Angel)
DR11 -0.80 дБ -25.96 дБ 3:20 33-The Dream of Gerontius, Op. 38: Part II: Take me away, and in the lowest deep there let me be (The Soul of Gerontius)
DR10 -20.12 дБ -39.01 дБ 1:04 34-The Dream of Gerontius, Op. 38: Part II: Lord, Thou hast been our refuge (Chorus)
DR14 -7.64 дБ -28.39 дБ 6:46 35-The Dream of Gerontius, Op. 38: Part II: Softly and gently (The Angel, Chorus)
DR15 -0.40 дБ -22.80 дБ 9:24 36-The Dream of Gerontius, Op. 38: Part II: Prelude
--------------------------------------------------------------------------------
Количество треков: 36
Реальные значения DR: DR13
Частота: 96000 Гц
Каналов: 2
Разрядность: 24
Битрейт: 1496 кбит/с
Кодек: FLAC
================================================================================
[teatrix.ru].t22593.torrent 
Торрент: Зарегистрирован [ 2016-03-21 00:37 ] · 929FEF12DAEC3C2CBA0048E35F977E585F25543C

Скачать .torrent

Скачать

19 KB

Статус: проверено
Скачан: 1 раз
Размер: 1.42 GB
terms.php



Быстрый ответ

Имя:

      
Для отправки сообщений необходимо включить JavaScript
Показать сообщения:    

Текущее время: 06-Дек 15:13

Часовой пояс: UTC + 3


Вы можете начинать темы
Вы можете отвечать на сообщения
Вы не можете редактировать свои сообщения
Вы не можете удалять свои сообщения
Вы не можете голосовать в опросах
Вы не можете прикреплять файлы к сообщениям
Вы можете скачивать файлы