[TR24][OF] Giacomo Puccini - Manon Lescaut / Джакомо Пуччини - Манон Леско (Placido Domingo; Ana Maria Martinez, Javier Arrey, Andrea Bocelli, Maurizio Muraro), 2014 - Studio recording (Opera)


Статистика раздачи [Обновить пиров]
Размер:  2.18 GB   |    Зарегистрирован:  8 месяцев 13 дней   |    Скачан:  0 раз

Полного источника не было: Никогда

 
   
 
 
 

[Цитировать]

Giacomo Puccini - Manon Lescaut
Формат записи/Источник записи: [TR24][OF]
Наличие водяных знаков: Нет
Год издания: 2014
Жанр: Opera
Издатель(лейбл): DECCA
Продолжительность: 01:58:10
Исполнитель:
Manon Lescaut - Ana María Martínez,
Lescaut - Javier Arrey,
Des Grieux - Andrea Bocelli,
Geronte di Ravoir - Maurizio Muraro,
Edmondo - Matthew Pena,
Il maestro di ballo - David Astorga,
Un lampionaio - Valentino Buzza,
L’oste - German Olvera.
Plácido Domingo, conductor,
Orquestra de la Comunitat Valenciana,
Coro de la Generalitat Valenciana.
Recorded on February 2014, at Palau de les Arts Reina Sofia, Valencia, Spain.
Контейнер: FLAC (*.flac)
Тип рипа: tracks
Разрядность: 24/96
Количество каналов: 2.0
Источник: qobuz

DR-Report

foobar2000 1.3.6 / Замер динамического диапазона (DR) 1.1.1
Дата отчёта: 2015-11-16 01:32:13
--------------------------------------------------------------------------------
Анализ: Ana María Martínez, Andrea Bocelli, Orquestra de la Comunitat Valenciana, Coro de la Generalitat Valenciana, Plácido Domingo / Puccini: Manon Lescaut - Dramma lirico in quattro atti
--------------------------------------------------------------------------------
DR Пики RMS Продолжительность трека
--------------------------------------------------------------------------------
DR14 0.00 дБ -18.67 дБ 4:33 01-Act One: Ave, sera gentile
DR12 -0.79 дБ -16.90 дБ 1:11 02-Act One: L'amor?! L'amor?!
DR11 -1.10 дБ -16.95 дБ 1:11 03-Act One: Tra voi, belle, brune e bionde
DR10 0.00 дБ -13.18 дБ 1:49 04-Act One: Ma bravo!
DR13 -0.87 дБ -21.06 дБ 2:10 05-Act One: Discendono, vediam!
DR13 -0.03 дБ -18.20 дБ 4:04 06-Act One: Cortese damigella
DR12 0.00 дБ -15.80 дБ 2:21 07-Act One: Donna non vidi mai
DR13 0.00 дБ -17.27 дБ 6:32 08-Act One: La tua ventura ci rassicura
DR13 -2.88 дБ -21.01 дБ 2:09 09-Act One: La tua Proserpina
DR12 0.00 дБ -16.67 дБ 3:52 10-Act One: Vedete? Io son fedele
DR10 0.00 дБ -14.23 дБ 3:07 11-Act One: Non c'è più vino?
DR14 0.00 дБ -18.14 дБ 2:57 12-Act One: Cavalli pronti avete?
DR16 -0.85 дБ -23.85 дБ 5:23 13-Act Two: Dispettosetto questo riccio!
DR13 -1.03 дБ -18.88 дБ 2:08 14-Act Two: In quelle trine morbide
DR11 0.00 дБ -16.47 дБ 2:56 15-Act Two: Poiché tu vuoi saper?
DR12 -4.47 дБ -22.94 дБ 1:58 16-Act Two: Che ceffi son costor?...Sulla vetta tu del monte
DR17 -1.15 дБ -23.44 дБ 1:18 17-Act Two: Paga costor!
DR15 -0.04 дБ -20.24 дБ 8:16 18-Act Two: Vi prego, signora (Minuetto) - L'ora, o Tirsi, è vaga e bella
DR11 0.00 дБ -15.33 дБ 8:17 19-Act Two: Oh, sarò la più bella!...Tu, tu, amore? Tu?
DR16 -0.10 дБ -20.19 дБ 1:44 20-Act Two: Ah!...Affé, madamigella
DR12 0.00 дБ -17.97 дБ 3:54 21-Act Two: Ah! ah! Liberi!...Ah! Manon, mi tradisce
DR12 0.00 дБ -14.88 дБ 3:26 22-Act Two: Lescaut? Tu qui?
DR15 -0.04 дБ -20.73 дБ 4:59 23-Intermezzo
DR14 -0.18 дБ -19.60 дБ 4:44 24-Act Three: Ansia eterna, crudel
DR12 -0.45 дБ -20.72 дБ 1:19 25-Act Three: ... e Kate ripose al Re
DR11 -0.16 дБ -15.91 дБ 1:24 26-Act Three: Manon, disperato è il mio prego!
DR12 0.00 дБ -16.25 дБ 1:53 27-Act Three: All'armi! All'armi!
DR11 0.00 дБ -15.94 дБ 3:51 28-Act Three: Rosetta!...Eh! Che aria!
DR11 0.00 дБ -14.51 дБ 3:46 29-Act Three: Presto! In fila!
DR13 -0.03 дБ -17.94 дБ 3:03 30-Act Four: Tutta su me ti posa
DR11 0.00 дБ -15.61 дБ 2:10 31-Act Four: Manon, senti amor mio...Vedi, son io che piango
DR10 0.00 дБ -14.73 дБ 4:12 32-Act Four: Sei tu che piangi?
DR11 0.00 дБ -16.05 дБ 4:58 33-Act Four: Sola perduta, abbandonata
DR11 0.00 дБ -16.53 дБ 6:51 34-Act Four: Fra le tue braccia, amore!
--------------------------------------------------------------------------------
Количество треков: 34
Реальные значения DR: DR12
Частота: 96000 Гц
Каналов: 2
Разрядность: 24
Битрейт: 2587 кбит/с
Кодек: FLAC
================================================================================

Треклист

Act I:
1. Ave, sera gentile 04:33
2. L'amor?! L'amor?! 01:11
3. Tra voi, belle, brune e bionde 01:11
4. Ma bravo! 01:49
5. Discendono, vediam! 02:10
6. Cortese damigella 04:04
7. Donna non vidi mai 02:21
8. La tua ventura ci rassicura 06:32
9. La tua Proserpina 02:09
10. Vedete? Io son fedele 03:52
11. Non c’è più vino? 03:07
12. Cavalli pronti avete? 02:57
Act II:
13. Dispettosetto questo riccio! 05:23
14. In quelle trine morbide 02:08
15. Poiché tu vuoi saper 02:56
16. Che ceffi son costor?...Sulla vetta tu del monte 01:58
17. Paga costor! 01:18
18. Vi prego, signorina (Minuetto) ... L’ora, o Tirsi, è vaga... 08:16
19. Oh, sarò la più bella! ... Tu, tu, amore? Tu?! 08:17
20. Ah! ... Affé, madamigella 01:44
21. Ah! ah! Liberi!...Ah! Manon, mi tradisce 03:54
22. Lescaut? Tu qui? 03:26
23. Intermezzo 04:59
Act III:
24. Ansia eterna, crudel 04:44
25. ... e Kate ripose al Re 01:19
26. Manon, disperato è il mio prego! 01:24
27. All'armi! All'armi! 01:53
28. Rosetta!...Eh! Che aria! 03:51
29. Presto! In fila! 03:46
Act IV:
30. Tutta su me ti posa 03:03
31. Manon, senti amor mio...Vedi, son io che piango 02:10
32. Sei tu che piangi? 04:12
33. Sola perduta, abbandonata 04:58
34. Fra le tue braccia, amore! 06:51
[teatrix.ru].t22594.torrent 
Торрент: Зарегистрирован [ 2016-03-21 00:37 ] · CEFF9DC59CA966EA772EC1E79B456A75DD52FA15

Скачать .torrent

Скачать

14 KB

Статус: проверено
Скачан: 0 раз
Размер: 2.18 GB
terms.php



Быстрый ответ

Имя:

      
Для отправки сообщений необходимо включить JavaScript
Показать сообщения:    

Текущее время: 03-Дек 18:43

Часовой пояс: UTC + 3


Вы можете начинать темы
Вы можете отвечать на сообщения
Вы не можете редактировать свои сообщения
Вы не можете удалять свои сообщения
Вы не можете голосовать в опросах
Вы не можете прикреплять файлы к сообщениям
Вы можете скачивать файлы