[TR24][SM][OF] Комитас / Komitas Vardapet - Songs, Dances (Levon Eskenian, The Gurdjieff Folk Instruments Ensemble) - 2015 (Classical, World)


Статистика раздачи [Обновить пиров]
Размер:  1.02 GB   |    Зарегистрирован:  8 месяцев 19 дней   |    Скачан:  0 раз

Полного источника не было: Никогда

 
   
 
 
 

[Цитировать]

Komitas Vardapet - Levon Eskenian, The Gurdjieff Folk Instruments Ensemble
Год издания: 2015
Жанр: Classical, World
Издатель (лейбл): ECM Records GmbH
Продолжительность: 00:57:47
Наличие сканов: да-Контейнер: FLAC (*.flac)
Тип рипа: tracks
Разрядность: 24bit / 96kHz
Количество каналов: 2.0-Исполнители:
Levon Eskenian,
The Gurdjieff Folk Instruments Ensemble
Треклист:
01. Zulo (03:05)
02. Tsaghik Asem, Mani Asem (01:49)
03. Msho Shoror (11:54)
04. Havun (04:55)
05. Mankakan Nvag XII (02:20)
06. Lorva Gutanerg (02:30)
Yot Par (Seven dances):
07. Manushaki Of Vagharshapat (02:54)
08. Shushiki Of Vagharshapat (01:39)
09. Unabi Of Shushi (01:43)
10. Marali Of Shushi (01:20)
11. Yerangui Of Yerevan (03:29)
12. Het U Araj Of Karin (02:46)
13. Karno Shoror (05:10)
14. Hov Arek (03:32)
15. Gutane Hats Em Berum (01:08)
16. Hoy, Nazan (01:47)
17. Havik (02:25)
18. Akna Oror (03:21)

Динамический диапазон - DR14:

foobar2000 1.3.2 / Замер динамического диапазона (DR) 1.1.1
Дата отчёта: 2015-11-16 12:20:41
--------------------------------------------------------------------------------
Анализ: The Gurdjieff Folk Instruments Ensemble & Levon Eskenian / Komitas
--------------------------------------------------------------------------------
DR Пики RMS Продолжительность трека
--------------------------------------------------------------------------------
DR13 -6.23 дБ -23.25 дБ 3:05 1/18-Zulo
DR12 -2.63 дБ -20.28 дБ 1:49 2/18-Tsaghik Asem, Mani Asem
DR15 0.00 дБ -19.29 дБ 11:54 3/18-Msho Shoror
DR10 -9.20 дБ -25.41 дБ 4:55 4/18-Havun
DR12 -0.01 дБ -15.40 дБ 2:20 5/18-Mankakan Nvag XII
DR12 -7.92 дБ -24.30 дБ 2:30 6/18-Lorva Gutanerg
DR16 -0.13 дБ -25.65 дБ 2:54 7/18-Yot Par (Seven dances): Manushaki Of Vagharshapat
DR16 -5.32 дБ -27.56 дБ 1:39 8/18-Yot Par (Seven dances): Shushiki Of Vagharshapat
DR19 -0.07 дБ -26.81 дБ 1:43 9/18-Yot Par (Seven dances): Unabi Of Shushi
DR14 -5.72 дБ -27.22 дБ 1:20 10/18-Yot Par (Seven dances): Marali Of Shushi
DR14 -6.77 дБ -26.48 дБ 3:29 11/18-Yot Par (Seven dances): Yerangui Of Yerevan
DR18 0.00 дБ -22.18 дБ 2:46 12/18-Yot Par (Seven dances): Het U Araj Of Karin
DR15 -0.12 дБ -20.29 дБ 5:10 13/18-Yot Par (Seven dances): Karno Shoror
DR12 -6.33 дБ -23.76 дБ 3:32 14/18-Hov Arek
DR10 -15.05 дБ -29.77 дБ 1:08 15/18-Gutane Hats Em Berum
DR13 -9.22 дБ -26.22 дБ 1:47 16/18-Hoy, Nazan
DR12 -7.90 дБ -24.77 дБ 2:25 17/18-Havik
DR10 -9.21 дБ -23.73 дБ 3:21 18/18-Akna Oror
--------------------------------------------------------------------------------
Количество треков: 18
Реальные значения DR: DR14
Частота: 96000 Гц
Каналов: 2
Разрядность: 24
Битрейт: 2533 кбит/с
Кодек: FLAC
================================================================================
[teatrix.ru].t22596.torrent 
Торрент: Зарегистрирован [ 2016-03-21 00:36 ] · ACBD5E8EC8AE1D43E11AB959451D1298F6314704

Скачать .torrent

Скачать

12 KB

Статус: проверено
Скачан: 0 раз
Размер: 1.02 GB
terms.php



Быстрый ответ

Имя:

      
Для отправки сообщений необходимо включить JavaScript
Показать сообщения:    

Текущее время: 09-Дек 18:27

Часовой пояс: UTC + 3


Вы можете начинать темы
Вы можете отвечать на сообщения
Вы не можете редактировать свои сообщения
Вы не можете удалять свои сообщения
Вы не можете голосовать в опросах
Вы не можете прикреплять файлы к сообщениям
Вы можете скачивать файлы