[TR24][OF] Glenn Gould - Bach - The Goldberg Variations (Rechannelled for Stereo) - 1955/2015 (Classical)


Статистика раздачи [Обновить пиров]
Размер:  356 MB   |    Зарегистрирован:  9 месяцев 30 дней   |    Скачан:  1 раз

Полного источника не было: 1 месяц 13 дней

 
   
 
 
 

[Цитировать]

Glenn Gould / Bach - The Goldberg Variations (Rechannelled for Stereo)
Формат записи/Источник записи: [TR24][OF]
Наличие водяных знаков: Нет
Год издания/переиздания диска: 1955/2015
Жанр: Classical
Издатель(лейбл): Sony Classical
Продолжительность: 00:38:20
Наличие сканов в содержимом раздачи: Да

Треклист

01-Aria
02-Variation
03-Variation
04-Variation
05-Variation
06-Variation
07-Variation
08-Variation
09-Variation
10-Variation
11-Variation
12-Variation
13-Variation
14-Variation
15-Variation
16-Variation
17-Variation
18-Variation
19-Variation
20-Variation
21-Variation
22-Variation
23-Variation
24-Variation
25-Variation
26-Variation
27-Variation
28-Variation
29-Variation
30-Variation
31-Variation
32-Aria
Контейнер: FLAC (*.flac)
Тип рипа: tracks
Разрядность: 24/44,1
Формат: PCM
Количество каналов: 2.0

Dynamic Range Meter

foobar2000 1.2.6 / Dynamic Range Meter 1.1.1
log date: 2015-12-31 01:17:28
--------------------------------------------------------------------------------
Analyzed: Glenn Gould, Main Artist, Piano - Johann Sebastian Bach, Composer - Fred Plaut, Recording Engineer - Howard H. Scott, Producer / Glenn Gould : Bach: The Goldberg Variations, BWV 988 (1955 Recording, Rechannelled for Stereo) - Gould Remastered
--------------------------------------------------------------------------------
DR Peak RMS Duration Track
--------------------------------------------------------------------------------
DR12 -6.99 dB -23.63 dB 1:52 01-Goldberg Variations, BWV 988 (1955 Recording, Rechannelled for Stereo):Aria (1955 Recording, Rechannelled for Stereo)
DR9 -5.66 dB -17.50 dB 0:45 02-Goldberg Variations, BWV 988 (1955 Recording, Rechannelled for Stereo):Variation 1 a 1 Clav. (1955 Recording, Rechannelled for Stereo)
DR10 -5.13 dB -18.28 dB 0:38 03-Goldberg Variations, BWV 988 (1955 Recording, Rechannelled for Stereo):Variation 2 a 1 Clav. (1955 Recording, Rechannelled for Stereo)
DR9 -5.15 dB -19.04 dB 0:55 04-Goldberg Variations, BWV 988 (1955 Recording, Rechannelled for Stereo):Variation 3 a 1 Clav. Canone all' Unisuono (1955 Recording, Rechannelled for Stereo)
DR9 -2.15 dB -13.92 dB 0:29 05-Goldberg Variations, BWV 988 (1955 Recording, Rechannelled for Stereo):Variation 4 a 1 Clav. (1955 Recording, Rechannelled for Stereo)
DR9 -4.81 dB -16.73 dB 0:37 06-Goldberg Variations, BWV 988 (1955 Recording, Rechannelled for Stereo):Variation 5 a 1 ovvero 2 Clav. (1955 Recording, Rechannelled for Stereo)
DR10 -9.47 dB -22.87 dB 0:35 07-Goldberg Variations, BWV 988 (1955 Recording, Rechannelled for Stereo):Variation 6 a 1 Clav. Canone alla Seconda (1955 Recording, Rechannelled for Stereo)
DR11 -7.22 dB -22.34 dB 1:08 08-Goldberg Variations, BWV 988 (1955 Recording, Rechannelled for Stereo):Variation 7 a 1 ovvero 2 Clav. (1955 Recording, Rechannelled for Stereo)
DR10 -6.65 dB -18.82 dB 0:46 09-Goldberg Variations, BWV 988 (1955 Recording, Rechannelled for Stereo):Variation 8 a 2 Clav. (1955 Recording, Rechannelled for Stereo)
DR9 -4.88 dB -17.58 dB 0:38 10-Goldberg Variations, BWV 988 (1955 Recording, Rechannelled for Stereo):Variation 9 a 1 Clav. Canone alla Terza (1955 Recording, Rechannelled for Stereo)
DR10 -5.03 dB -17.40 dB 0:43 11-Goldberg Variations, BWV 988 (1955 Recording, Rechannelled for Stereo):Variation 10 a 1 Clav. Fughetta (1955 Recording, Rechannelled for Stereo)
DR10 -5.47 dB -19.81 dB 0:55 12-Goldberg Variations, BWV 988 (1955 Recording, Rechannelled for Stereo):Variation 11 a 2 Clav. (1955 Recording, Rechannelled for Stereo)
DR8 -2.04 dB -13.10 dB 0:56 13-Goldberg Variations, BWV 988 (1955 Recording, Rechannelled for Stereo):Variation 12 Canone alla Quarta (1955 Recording, Rechannelled for Stereo)
DR11 -5.90 dB -22.69 dB 2:10 14-Goldberg Variations, BWV 988 (1955 Recording, Rechannelled for Stereo):Variation 13 a 2 Clav. (1955 Recording, Rechannelled for Stereo)
DR10 -4.04 dB -16.88 dB 0:59 15-Goldberg Variations, BWV 988 (1955 Recording, Rechannelled for Stereo):Variation 14 a 2 Clav. (1955 Recording, Rechannelled for Stereo)
DR11 -6.91 dB -22.21 dB 2:17 16-Goldberg Variations, BWV 988 (1955 Recording, Rechannelled for Stereo):Variation 15 a 1 Clav. Canone alla Quinta. Andante (1955 Recording, Rechannelled for Stereo)
DR10 -4.98 dB -17.26 dB 1:18 17-Goldberg Variations, BWV 988 (1955 Recording, Rechannelled for Stereo):Variation 16 Ouverture a 1 Clav. (1955 Recording, Rechannelled for Stereo)
DR10 -7.62 dB -20.86 dB 0:54 18-Goldberg Variations, BWV 988 (1955 Recording, Rechannelled for Stereo):Variation 17 a 2 Clav. (1955 Recording, Rechannelled for Stereo)
DR11 -10.06 dB -24.31 dB 0:46 19-Goldberg Variations, BWV 988 (1955 Recording, Rechannelled for Stereo):Variation 18 Canone alla Sesta a 1 Clav. (1955 Recording, Rechannelled for Stereo)
DR11 -10.15 dB -24.28 dB 0:43 20-Goldberg Variations, BWV 988 (1955 Recording, Rechannelled for Stereo):Variation 19 a 1 Clav. (1955 Recording, Rechannelled for Stereo)
DR10 -5.70 dB -18.20 dB 0:49 21-Goldberg Variations, BWV 988 (1955 Recording, Rechannelled for Stereo):Variation 20 a 2 Clav. (1955 Recording, Rechannelled for Stereo)
DR11 -4.95 dB -18.30 dB 1:43 22-Goldberg Variations, BWV 988 (1955 Recording, Rechannelled for Stereo):Variation 21 Canone alla Settima (1955 Recording, Rechannelled for Stereo)
DR10 -3.31 dB -15.98 dB 0:43 23-Goldberg Variations, BWV 988 (1955 Recording, Rechannelled for Stereo):Variation 22 Alla breve a 1 Clav. (1955 Recording, Rechannelled for Stereo)
DR10 -4.16 dB -17.30 dB 0:55 24-Goldberg Variations, BWV 988 (1955 Recording, Rechannelled for Stereo):Variation 23 a 2 Clav. (1955 Recording, Rechannelled for Stereo)
DR10 -5.53 dB -18.45 dB 0:57 25-Goldberg Variations, BWV 988 (1955 Recording, Rechannelled for Stereo):Variation 24 Canone all' Ottava a 1 Clav. (1955 Recording, Rechannelled for Stereo)
DR15 -7.28 dB -28.91 dB 6:30 26-Goldberg Variations, BWV 988 (1955 Recording, Rechannelled for Stereo):Variation 25 a 2 Clav. (1955 Recording, Rechannelled for Stereo)
DR11 -4.53 dB -17.21 dB 0:52 27-Goldberg Variations, BWV 988 (1955 Recording, Rechannelled for Stereo):Variation 26 a 2 Clav. (1955 Recording, Rechannelled for Stereo)
DR10 -4.28 dB -17.09 dB 0:50 28-Goldberg Variations, BWV 988 (1955 Recording, Rechannelled for Stereo):Variation 27 Canone alla Nona (1955 Recording, Rechannelled for Stereo)
DR10 -6.29 dB -19.05 dB 1:11 29-Goldberg Variations, BWV 988 (1955 Recording, Rechannelled for Stereo):Variation 28 a 2 Clav. (1955 Recording, Rechannelled for Stereo)
DR10 -4.10 dB -15.75 dB 1:01 30-Goldberg Variations, BWV 988 (1955 Recording, Rechannelled for Stereo):Variation 29 a 1 ovvero 2 Clav. (1955 Recording, Rechannelled for Stereo)
DR10 -3.25 dB -15.68 dB 0:48 31-Goldberg Variations, BWV 988 (1955 Recording, Rechannelled for Stereo):Variation 30 a 1 Clav. Quodlibet (1955 Recording, Rechannelled for Stereo)
DR11 -14.20 dB -30.24 dB 2:13 32-Goldberg Variations, BWV 988 (1955 Recording, Rechannelled for Stereo):Aria da capo (1955 Recording, Rechannelled for Stereo)
--------------------------------------------------------------------------------
Number of tracks: 32
Official DR value: DR10
Samplerate: 44100 Hz
Channels: 2
Bits per sample: 24
Bitrate: 1187 kbps
Codec: FLAC
================================================================================
Источник (релизер): взято в сетиТа самая первая запись Гольдберг вариаций, с которой началась слава Гленна Гульда. Оригинальная моно версия переведена Коламбией в стерео в 1968 году. Из коробки ремастеров Гульда, изданной в 2015 году.
[teatrix.ru].t22600.torrent 
Торрент: Зарегистрирован [ 2016-03-21 00:36 ] · F0D50DAC5EA934DFF3E1269AC32E9AC4D3FDD976

Скачать .torrent

Скачать

32 KB

Статус: проверено
Скачан: 1 раз
Размер: 356 MB
terms.php



Быстрый ответ

Имя:

      
Для отправки сообщений необходимо включить JavaScript
Показать сообщения:    

Текущее время: 20-Янв 16:53

Часовой пояс: UTC + 3


Вы можете начинать темы
Вы можете отвечать на сообщения
Вы не можете редактировать свои сообщения
Вы не можете удалять свои сообщения
Вы не можете голосовать в опросах
Вы не можете прикреплять файлы к сообщениям
Вы можете скачивать файлы