Великая княгиня. Александра Петровна Романова, принцесса Ольденбургская (Цикл: Быть женщиной - великий шаг) (Татьяна Малова) [2013, Документальный, DVB-AVC]


Статистика раздачи [Обновить пиров]
Размер:  928 MB   |    Зарегистрирован:  8 месяцев 12 дней   |    Скачан:  0 раз

Полного источника не было: Никогда

 
   
 
 
 

[Цитировать]

Великая княгиня. Александра Петровна Романова, принцесса Ольденбургская (Цикл: Быть женщиной - великий шаг)
Год выпуска: 2013
Страна: Российская Федерация
Студия: ТРК Плеяда
Жанр: Документальный
Продолжительность: 00:52:13
Перевод: Не требуется
Режиссер: Татьяна Малова
Описание: Самая неизвестная из царской династии. Александра Петровна Романова, принцесса Ольденбургская. Она прожила жизнь, которую можно назвать подвигом, прошла через тяжёлые испытания и вышла из всего этого, сохранив в своём сердце любовь к людям.
Её неутомимые руки и доброе, полное сострадания сердце, помогали больным, обездоленным и гонимым найти тепло, приют и покой. Великая княгиня на свои деньги строила больницы, родильные дома, основала Общину сестёр милосердия. Она основала Киево-Покровский женский монастырь, который на протяжении всего ХХ века являлся одним из духовных центров Православной Руси. Традиции, заложенные Матушкой Великой, как называют её в Обители, продолжаются и по сей день.
В фильме собраны уникальные документальные материалы, которые впервые позволяют в полной мере узнать жизненный путь Великой княгини Александры Петровны Романовой, принцессы Ольденбургской. И оценить духовный подвиг этой Великой Женщины, прославленной в лике местночтимых святых Киевской епархии, как Преподобная Великая Княгиня Анастасия Киевская.
В фильме публикуются её уникальные фотографии и письма из Государственного архива Российской Федерации.
МАТЕРИАЛЫ, НЕ ВОШЕДШИЕ В ФИЛЬМ "ВЕЛИКАЯ КНЯГИНЯ"
http://pleiada-tv.ru/index.php/en/item/8-materialy-ne-voshedshie-v-film-velikaya-knyaginya
Доп. информация: Запись потока *.ts с наземного цифрового телеканала "Беларусь 3", ремукс в *.mkv программой VideoReDo.
Источник: собственный рип
Качество: DVB-AVC
Контейнер: MKV
Видео кодек: H.264
Аудио кодек: MP2
Видео: MPEG4 Video (H264) 720x576 (49:36) 25fps, 2 178 Kbps
Аудио: MPEG Audio 48000Hz stereo 256kbps
Сэмпл: http://rusfolder.com/44455567

MediaInfo

General
Unique ID : 42191612550869039924008365702975168921 (0x1FBDCF1AB6BBDCEB3A0F90BA0E71A199)
Complete name : D:\Новая земля 2\001 Документальный фильмы\Личности\Великая княгиня (2013)\Великая княгиня (2013).mkv
Format : Matroska
Format version : Version 2
File size : 928 MiB
Duration : 52mn 12s
Overall bit rate : 2 484 Kbps
Writing application : Lavf52.64.2
Writing library : Lavf52.64.2
Video
ID : 1
Format : AVC
Format/Info : Advanced Video Codec
Format profile : Main@L3.0
Format settings, CABAC : Yes
Format settings, ReFrames : 4 frames
Format settings, GOP : M=4, N=24
Codec ID : V_MPEG4/ISO/AVC
Duration : 52mn 12s
Bit rate : 2 178 Kbps
Width : 720 pixels
Height : 576 pixels
Display aspect ratio : 4:3
Original display aspect ratio : 4:3
Frame rate mode : Constant
Frame rate : 25.000 fps
Standard : PAL
Color space : YUV
Chroma subsampling : 4:2:0
Bit depth : 8 bits
Scan type : MBAFF
Scan order : Top Field First
Bits/(Pixel*Frame) : 0.210
Stream size : 813 MiB (88%)
Default : Yes
Forced : No
Color primaries : BT.601 PAL
Transfer characteristics : BT.470 System B, BT.470 System G
Matrix coefficients : BT.601
Color range : Limited
Audio
ID : 2
Format : MPEG Audio
Format version : Version 1
Format profile : Layer 2
Codec ID : A_MPEG/L2
Codec ID/Hint : MP2
Duration : 52mn 12s
Bit rate mode : Constant
Bit rate : 256 Kbps
Channel(s) : 2 channels
Sampling rate : 48.0 KHz
Compression mode : Lossy
Stream size : 95.6 MiB (10%)
Language : English
Default : Yes
Forced : No
[teatrix.ru].t22601.torrent 
Торрент: Зарегистрирован [ 2016-03-21 00:36 ] · 7511A64AD3AACE87A3399887D3C0404430E12A04

Скачать .torrent

Скачать

19 KB

Статус: проверено
Скачан: 0 раз
Размер: 928 MB
terms.php



Быстрый ответ

Имя:

      
Для отправки сообщений необходимо включить JavaScript
Показать сообщения:    

Текущее время: 02-Дек 21:06

Часовой пояс: UTC + 3


Вы можете начинать темы
Вы можете отвечать на сообщения
Вы не можете редактировать свои сообщения
Вы не можете удалять свои сообщения
Вы не можете голосовать в опросах
Вы не можете прикреплять файлы к сообщениям
Вы можете скачивать файлы