(Classical) Children's Cello - Steven Isserlis, Stephen Hough - 2006, FLAC (image+.cue) lossless


 

[Цитировать]

Children's Cello - Steven Isserlis, Stephen Hough
Жанр: Classical
Страна-производитель диска: Sweden
Год издания диска: 2006
Издатель (лейбл): BIS
Номер по каталогу: BIS-CD-1562
Дата записи: 2005
Аудиокодек: FLAC
Тип рипа: image+.cue
Битрейт аудио: lossless
Продолжительность: 81:15
Источник: собственный рип
Наличие сканов в содержимом раздачи: да
Треклист:
Children’s Cello
First Steps
[1] Ludwig Lebell: Berceuse Orientale
[2] Sheila Nelson: Mad as a Hatter
[3] Alfred Earnshaw: Tarantella
[4] Joachim Stutchewsky: Kinnereth
[5] Joachim Stutchewsky: Wanderer's Song
Intermediate
[6] Adam Carse: A Merry Dance
[7] Francis Purcell Warren: A Sunday evening in Autumn
[8] Francis Purcell Warren: Cradle Song
[9] John Graves: The Swans Glide on the Bishop's Palace Moat
[10] William Henry Squire: Danse Rustique
[11] Luigi Boccherini: Minuet
[12] Gavin Bryars: With Miriam by the River
[13] Arnold Trowell: Gavotte
[14] Jean Sibelius: Lulu Waltz
[15] George Dyson: Melody
[16] Frank Bridge: Spring Song
[17] Amy Beach: Berceuse
[18] Gabriel Prosper Marie: La Cinquantaine
[19] Georg Goltermann: La Foi
The Young Cellist
[20] Francis Poulenc: Serenade
[21] Joseph Tuby: Serenade
[22] Gabriel Fauré: Berceuse
[23] David Popper: Gavotte, Op.23
[24] Felix Mendelssohn Bartholdy: Song Without Words, Op.109
[25] Gaspar Cassadó: Requiebros
Gabriel’s Corner
[26] Howard Blake: Archangel's Lullaby
[27] Olli Mustonen: Frogs Dancing on Water-Lillies
[28] Stephen Hough: Angelic Song
[29] Stephen Hough: Angelic Dance
[30] Steven Isserlis: The Haunted House
Simon Callow narrator
Исполнители:
Steven Isserlis cello
Stephen Hough piano

Лог создания рипа

Exact Audio Copy V1.0 beta 3 from 29. August 2011
EAC extraction logfile from 26. March 2015, 1:31
Steven Isserlis, Stephen Hough / Children's Cello
Used drive : HL-DT-STDVDRAM GU70N Adapter: 0 ID: 0
Read mode : Secure
Utilize accurate stream : Yes
Defeat audio cache : Yes
Make use of C2 pointers : No
Read offset correction : 48
Overread into Lead-In and Lead-Out : No
Fill up missing offset samples with silence : Yes
Delete leading and trailing silent blocks : No
Null samples used in CRC calculations : Yes
Used interface : Native Win32 interface for Win NT & 2000
Used output format : User Defined Encoder
Selected bitrate : 128 kBit/s
Quality : High
Add ID3 tag : No
Command line compressor : C:\Program Files (x86)\Exact Audio Copy\Flac\flac.exe
Additional command line options : -V -8 -T "Date=%year%" -T "Genre=%genre%" %source%
TOC of the extracted CD
Track | Start | Length | Start sector | End sector
---------------------------------------------------------
1 | 0:00.00 | 1:52.12 | 0 | 8411
2 | 1:52.12 | 0:37.57 | 8412 | 11243
3 | 2:29.69 | 1:25.74 | 11244 | 17692
4 | 3:55.68 | 2:24.68 | 17693 | 28560
5 | 6:20.61 | 2:44.63 | 28561 | 40923
6 | 9:05.49 | 1:49.38 | 40924 | 49136
7 | 10:55.12 | 1:42.62 | 49137 | 56848
8 | 12:37.74 | 1:17.59 | 56849 | 62682
9 | 13:55.58 | 1:54.30 | 62683 | 71262
10 | 15:50.13 | 2:47.61 | 71263 | 83848
11 | 18:37.74 | 3:52.44 | 83849 | 101292
12 | 22:30.43 | 3:36.22 | 101293 | 117514
13 | 26:06.65 | 1:56.11 | 117515 | 126225
14 | 28:03.01 | 0:53.49 | 126226 | 130249
15 | 28:56.50 | 2:46.04 | 130250 | 142703
16 | 31:42.54 | 2:31.74 | 142704 | 154102
17 | 34:14.53 | 3:15.13 | 154103 | 168740
18 | 37:29.66 | 3:37.58 | 168741 | 185073
19 | 41:07.49 | 3:45.20 | 185074 | 201968
20 | 44:52.69 | 2:02.54 | 201969 | 211172
21 | 46:55.48 | 2:38.14 | 211173 | 223036
22 | 49:33.62 | 3:52.52 | 223037 | 240488
23 | 53:26.39 | 4:45.52 | 240489 | 261915
24 | 58:12.16 | 4:45.02 | 261916 | 283292
25 | 62:57.18 | 5:03.43 | 283293 | 306060
26 | 68:00.61 | 1:39.55 | 306061 | 313540
27 | 69:40.41 | 3:11.52 | 313541 | 327917
28 | 72:52.18 | 2:16.31 | 327918 | 338148
29 | 75:08.49 | 1:33.26 | 338149 | 345149
30 | 76:42.00 | 4:31.00 | 345150 | 365474
Range status and errors
Selected range
Filename C:\temp\BIS-CD-1562 - Children's Cello\Children's Cello.wav
Peak level 99.3 %
Extraction speed 2.3 X
Range quality 100.0 %
Test CRC 238F4DC3
Copy CRC 238F4DC3
Copy OK
No errors occurred
AccurateRip summary
Track 1 accurately ripped (confidence 6) [541264C6] (AR v1)
Track 2 accurately ripped (confidence 6) [A3264A30] (AR v1)
Track 3 accurately ripped (confidence 6) [29DD8B33] (AR v1)
Track 4 accurately ripped (confidence 6) [1B4E33D3] (AR v1)
Track 5 accurately ripped (confidence 6) [287FBFFC] (AR v1)
Track 6 accurately ripped (confidence 6) [FC3060D8] (AR v1)
Track 7 accurately ripped (confidence 6) [7313FB4F] (AR v1)
Track 8 accurately ripped (confidence 6) [F3E38282] (AR v1)
Track 9 accurately ripped (confidence 6) [A8DB1435] (AR v1)
Track 10 accurately ripped (confidence 6) [73BB65E0] (AR v1)
Track 11 accurately ripped (confidence 6) [84D220E2] (AR v1)
Track 12 accurately ripped (confidence 6) [BB1BCC85] (AR v1)
Track 13 accurately ripped (confidence 6) [9706829C] (AR v1)
Track 14 accurately ripped (confidence 6) [89C05708] (AR v1)
Track 15 accurately ripped (confidence 6) [9DAF10CB] (AR v1)
Track 16 accurately ripped (confidence 6) [2E894DE4] (AR v1)
Track 17 accurately ripped (confidence 6) [71BFB131] (AR v1)
Track 18 accurately ripped (confidence 6) [893A9192] (AR v1)
Track 19 accurately ripped (confidence 6) [7EC293C3] (AR v1)
Track 20 accurately ripped (confidence 6) [1D2123DC] (AR v1)
Track 21 accurately ripped (confidence 6) [0F13D710] (AR v1)
Track 22 accurately ripped (confidence 6) [9A718AE3] (AR v1)
Track 23 accurately ripped (confidence 6) [CD3B84AA] (AR v1)
Track 24 accurately ripped (confidence 6) [942985DA] (AR v1)
Track 25 accurately ripped (confidence 6) [55AB14AA] (AR v1)
Track 26 accurately ripped (confidence 6) [52330BA9] (AR v1)
Track 27 accurately ripped (confidence 6) [0BBCFC99] (AR v1)
Track 28 accurately ripped (confidence 6) [E088BF14] (AR v1)
Track 29 accurately ripped (confidence 6) [511F8995] (AR v1)
Track 30 accurately ripped (confidence 5) [FE55A8BF] (AR v1)
All tracks accurately ripped
End of status report
==== Log checksum 0B51CC615170C595F718C67D37C38CA11F63ACE2A23AACA23CDFEEAFDFCD8710 ====



Показать сообщения:    

Текущее время: 20-Янв 14:56

Часовой пояс: UTC + 3


Вы не можете начинать темы
Вы не можете отвечать на сообщения
Вы не можете редактировать свои сообщения
Вы не можете удалять свои сообщения
Вы не можете голосовать в опросах
Вы не можете прикреплять файлы к сообщениям
Вы не можете скачивать файлы