[TR24][OF] Grazyna Bacewicz - Complete String Quartets: Vol. 1 (Lutoslawski Quartet) - 2015 (Chamber)


Статистика раздачи [Обновить пиров]
Размер:  1.18 GB   |    Зарегистрирован:  8 месяцев 17 дней   |    Скачан:  0 раз

Полного источника не было: Никогда

 
   
 
 
 

[Цитировать]

Grazyna Bacewicz - Complete String Quartets: Vol. 1
Формат записи/Источник записи: [TR24][OF]
Наличие водяных знаков: Нет
Год издания/переиздания диска: 2015
Жанр: Chamber
Издатель(лейбл): Naxos
Продолжительность: 01:10:19
Исполнитель:
Lutoslawski Quartet, ensemble:
Jakub Jakowicz, Violin I,
Marcin Markowicz, Violin II,
Artur Rozmysłowicz, Viola,
Maciej Młodawski, Cello.
Recorded at Wrocław Philharmonic Concert Hall, Poland, from 15th to 17th November, 2012 (tracks 1-4, 8-13), and from 11th to 17th December, 2012 (tracks 5-7).
Контейнер: FLAC (*.flac)
Тип рипа: tracks
Разрядность: 24/96
Количество каналов: 2.0
Источник: qobuz

DR-Report

foobar2000 1.3.6 / Замер динамического диапазона (DR) 1.1.1
Дата отчёта: 2015-11-17 04:23:36
--------------------------------------------------------------------------------
Анализ: Lutosławski Quartet / Complete String Quartets, Vol. 1
--------------------------------------------------------------------------------
DR Пики RMS Продолжительность трека
--------------------------------------------------------------------------------
DR16 -0.48 дБ -23.96 дБ 7:03 01-String Quartet No. 6 - I. Andante - Vivo
DR18 -1.21 дБ -24.54 дБ 3:41 02-String Quartet No. 6 - II. Vivace
DR13 -6.67 дБ -34.05 дБ 3:46 03-String Quartet No. 6 - III. Grave
DR15 -1.13 дБ -22.84 дБ 3:05 04-String Quartet No. 6 - IV. dotted quarter note = 114
DR16 -0.39 дБ -22.21 дБ 6:04 05-String Quartet No. 1 - I. Moderato - Piu mosso
DR17 -3.29 дБ -27.61 дБ 6:33 06-String Quartet No. 1 - II. Tema con variazioni
DR15 -1.21 дБ -21.13 дБ 4:12 07-String Quartet No. 1 - III. Vivo
DR14 -0.70 дБ -19.79 дБ 6:20 08-String Quartet No. 3 - I. Allegro ma non troppo
DR15 -0.87 дБ -22.71 дБ 6:26 09-String Quartet No. 3 - II. Andante
DR16 -1.26 дБ -21.33 дБ 5:54 10-String Quartet No. 3 - III. Vivo
DR14 -0.33 дБ -23.76 дБ 5:56 11-String Quartet No. 7 - I. Allegro
DR16 -3.70 дБ -28.05 дБ 6:19 12-String Quartet No. 7 - II. Grave
DR15 -2.28 дБ -23.57 дБ 5:09 13-String Quartet No. 7 - III. Con vivezza
--------------------------------------------------------------------------------
Количество треков: 13
Реальные значения DR: DR15
Частота: 96000 Гц
Каналов: 2
Разрядность: 24
Битрейт: 2344 кбит/с
Кодек: FLAC
================================================================================

Треклист

String Quartet No. 6 (1960):
1. Andante. Vivo 7:06
2. Vivace 3:42
3. Grave 3:46
4. Dotted quarter note = 114 3:05
String Quartet No. 1 (1939):
5. Moderato. Più mosso 6:12
6. Tema con variazioni 6:33
7. Vivo 4:12
String Quartet No. 3 (1947):
8. Allegro ma non troppo 6:30
9. Andante 6:26
10. Vivo 5:55
String Quartet No. 7 (1965):
11. Allegro 6:05
12. Grave 6:20
13. Con vivezza 5:12
[teatrix.ru].t22604.torrent 
Торрент: Зарегистрирован [ 2016-03-21 00:36 ] · 2FB99C17AB64A45D4D086D31E1E39BD1B0A2A92C

Скачать .torrent

Скачать

13 KB

Статус: проверено
Скачан: 0 раз
Размер: 1.18 GB
terms.php



Быстрый ответ

Имя:

      
Для отправки сообщений необходимо включить JavaScript
Показать сообщения:    

Текущее время: 07-Дек 13:39

Часовой пояс: UTC + 3


Вы можете начинать темы
Вы можете отвечать на сообщения
Вы не можете редактировать свои сообщения
Вы не можете удалять свои сообщения
Вы не можете голосовать в опросах
Вы не можете прикреплять файлы к сообщениям
Вы можете скачивать файлы